<svg enable-background="new 0 0 391.4 101.4" height="73.191" viewBox="0 0 270 73.191" width="270" xmlns="http://www.w3.org/2000/svg"><font horiz-adv-x="1000" horiz-origin-x="0" horiz-origin-y="0" vert-adv-y="1024" vert-origin-x="512" vert-origin-y="768"><font-face underline-position="-125" underline-thickness="50"/><missing-glyph horiz-adv-x="310"/><glyph horiz-adv-x="310" unicode="&#x20;"/><glyph d="M131 60C139 68 149 72 160 72 171 72 181 68 189 60 197 52 201 42 201 31 201 20 197 10 189 2 181-6 171-10 160-10 149-10 139-6 131 2 123 10 119 20 119 31 119 42 123 52 131 60M136 143l0 611 48 0 0-611z" horiz-adv-x="320" unicode="&#x21;"/><glyph d="M58 754l48 0-11-240-27 0M172 754l48 0-11-240-27 0z" horiz-adv-x="278" unicode="&#x26;&#x61;&#x6d;&#x70;&#x3b;&#x71;&#x75;&#x6f;&#x74;&#x3b;"/><glyph d="M536 276l0-48-126 0-37-228-46 0 36 228-135 0-33-228-48 0 33 228-121 0 0 48 128 0 23 162-123 0 0 48 130 0 32 212 50 0-32-212 136 0 32 212 50 0-33-212 110 0 0-48-118 0-26-162M395 438l-136 0-24-162 136 0z" horiz-adv-x="620" unicode="&#x23;"/><glyph d="M347 362l0-322C388 50 422 71 449 104 476 136 489 173 489 214 489 233 485 251 477 266 469 281 457 295 440 308 423 321 409 330 398 337 386 343 369 351 347 362M302 437l0 279C267 716 237 702 212 673 187 644 174 612 174 575 174 558 177 542 184 529 190 515 200 503 213 492 226 481 238 472 249 466 260 459 274 451 292 442 297 440 300 438 302 437M302 38l0 346C299 385 294 388 288 391 261 404 241 415 228 423 214 431 198 443 179 458 160 473 147 490 139 509 130 528 126 549 126 573 126 626 142 671 175 706 207 741 249 760 302 764l0 105 45 0 0-107C379 758 409 747 436 728 463 709 485 686 500 658l-37-30C432 681 394 711 347 716l0-300C351 414 363 408 382 399 401 390 413 384 418 381 423 378 433 372 448 363 463 354 474 346 479 341 484 336 491 328 501 317 511 306 518 296 522 287 525 278 529 266 532 253 535 240 537 225 537 210 537 157 519 110 482 69 445 28 400 2 347-8l0-113-45 0 0 111C250-9 205 6 167 35 129 64 101 103 83 153l41 19C139 131 163 98 195 73 226 48 262 36 302 38z" horiz-adv-x="620" unicode="&#x24;"/><glyph d="M332 612C332 570 317 535 288 507 259 479 223 465 180 465 137 465 101 479 72 507 43 535 28 570 28 612 28 655 43 691 72 719 101 747 137 761 180 761 223 761 259 747 288 719 317 691 332 655 332 612M70 612C70 583 81 559 103 538 124 517 150 507 180 507 210 507 236 517 258 538 279 559 290 583 290 612 290 642 279 667 258 688 236 709 210 719 180 719 150 719 124 709 103 688 81 667 70 642 70 612M538 771l33-17-448-771-31 18M636 140C636 98 621 63 592 35 563 7 527-7 484-7 441-7 405 7 376 35 347 63 332 98 332 140 332 183 347 219 376 247 405 275 441 289 484 289 527 289 563 275 592 247 621 219 636 183 636 140M374 140C374 111 385 87 407 66 428 45 454 35 484 35 514 35 540 45 562 66 583 87 594 111 594 140 594 170 583 195 562 216 540 237 514 247 484 247 454 247 428 237 407 216 385 195 374 170 374 140z" horiz-adv-x="664" unicode="&#x25;"/><glyph d="M316 723C289 723 267 712 248 691 229 670 220 645 220 618 220 605 222 592 227 579 232 566 237 555 243 546 248 537 256 526 266 512 275 497 282 486 287 479 294 484 305 492 320 503 335 514 346 522 354 529 361 536 370 544 380 555 390 566 397 577 402 589 406 601 408 614 408 629 408 655 399 677 382 696 364 714 342 723 316 723M592 0l-95 125C446 82 399 48 354 23 309-2 264-15 219-15 164-15 117 5 79 44 41 83 22 129 22 184 22 209 27 234 38 258 48 282 59 302 72 318 84 334 103 352 128 373 153 393 173 408 186 417 199 426 221 439 251 458 250 460 244 468 234 482 224 495 218 504 215 509 212 514 206 522 199 534 192 546 187 556 184 563 181 570 179 580 176 591 173 602 172 612 172 623 172 663 187 697 216 726 245 754 279 768 319 768 358 768 390 754 417 727 443 700 456 667 456 628 456 607 453 588 446 571 439 553 427 536 412 521 397 505 382 492 369 481 356 470 338 457 315 442l186-254 96 105 37-20-105-120 115-153M279 420l-48-32C207 373 188 360 174 350 160 339 144 325 125 308 106 291 93 272 84 253 75 233 70 212 70 189 70 146 84 108 112 77 140 46 176 30 219 30 246 30 277 38 310 54 343 70 370 86 391 101 411 116 437 136 469 163z" horiz-adv-x="642" unicode="&#x26;&#x61;&#x6d;&#x70;&#x3b;&#x61;&#x6d;&#x70;&#x3b;"/><glyph d="M141 764l45-13-83-227-30 11z" horiz-adv-x="259" unicode="&#x2019;"/><glyph d="M137 780l37-26C132 605 111 452 111 295 111 148 132-1 174-152l-37-25C114-117 96-43 84 45 72 133 66 216 66 295 66 378 72 464 84 554 95 643 113 719 137 780z" horiz-adv-x="240" unicode="&#x28;"/><glyph d="M66 754l37 26C127 719 145 643 157 554 168 464 174 378 174 295 174 216 168 133 156 45 144-43 126-117 103-177l-37 25C108-1 129 148 129 295 129 452 108 605 66 754z" horiz-adv-x="240" unicode="&#x29;"/><glyph d="M289 604l-4 150 49 0-4-150 142 50 15-47-144-43 92-119-40-29-85 124-86-124-39 28 91 120-144 43 15 47z" horiz-adv-x="619" unicode="&#x2a;"/><glyph d="M286 280l0 232 48 0 0-232 232 0 0-48-232 0 0-232-48 0 0 232-232 0 0 48z" horiz-adv-x="620" unicode="&#x2b;"/><glyph d="M153 74l45-14-83-226-30 11z" horiz-adv-x="310" unicode="&#x2c;"/><glyph d="M126 60C134 68 144 72 155 72 166 72 176 68 184 60 192 52 196 42 196 31 196 20 192 10 184 2 176-6 166-10 155-10 144-10 134-6 126 2 118 10 114 20 114 31 114 42 118 52 126 60z" horiz-adv-x="310" unicode="&#x2e;"/><glyph d="M570 825l35-18-533-949-37 19z" horiz-adv-x="640" unicode="&#x2f;"/><glyph d="M584 382C584 341 579 298 568 255 557 211 541 169 520 129 499 88 470 55 433 29 396 3 355-10 310-10 265-10 224 3 187 29 150 55 122 88 101 129 80 169 64 211 53 255 42 298 36 341 36 382 36 415 40 448 47 483 54 517 64 551 79 585 94 618 112 648 133 675 154 702 179 723 210 740 241 756 274 764 310 764 346 764 379 756 410 740 441 723 467 702 488 675 509 648 526 618 541 585 556 551 567 517 574 483 581 448 584 415 584 382M536 382C536 414 532 449 523 486 514 523 501 559 484 595 467 630 443 660 413 684 382 707 348 719 310 719 272 719 238 707 208 684 177 660 153 630 136 595 119 559 106 523 97 486 88 449 84 414 84 382 84 346 88 309 97 270 106 231 119 194 136 158 153 122 177 93 208 70 238 47 272 35 310 35 348 35 382 47 413 70 443 93 467 122 484 158 501 194 514 231 523 270 532 309 536 346 536 382z" horiz-adv-x="620" unicode="&#x30;"/><glyph d="M308 709l-119 0 23 45 144 0 0-754-48 0z" horiz-adv-x="620" unicode="&#x31;"/><glyph d="M176 45l358 0 0-45-465 0 281 309C404 368 440 413 457 444 478 481 489 515 489 546 489 595 472 636 437 669 402 702 360 719 311 719 259 719 216 702 182 669 148 635 132 592 133 541l-48 0C87 602 103 650 132 684 154 709 181 728 214 743 246 757 278 764 311 764 374 764 427 743 471 701 515 658 537 606 537 543 537 519 533 496 526 473 518 450 506 427 489 403 472 378 458 360 447 347 436 334 418 314 395 289z" horiz-adv-x="620" unicode="&#x32;"/><glyph d="M302 370l0 45C347 416 385 432 416 461 447 490 462 527 462 572 462 613 447 647 418 676 389 705 354 719 313 719 270 719 235 706 210 680 184 654 170 619 167 576l-48 0C123 634 142 680 176 714 210 747 256 764 314 764 368 764 414 745 453 708 491 670 510 624 510 570 510 531 500 496 480 465 459 434 432 410 397 395 434 381 464 357 487 323 510 289 521 252 521 212 521 149 500 97 458 54 415 11 363-10 300-10 242-10 193 8 152 45 111 82 90 128 91 185l48 0C143 140 159 104 188 77 217 49 254 35 299 35 346 35 387 52 422 87 456 121 473 162 473 209 473 257 457 296 424 326 391 355 350 370 302 370z" horiz-adv-x="620" unicode="&#x33;"/><glyph d="M467 188l106 0 0-45-106 0 0-143-48 0 0 143-407 0 0 6 449 631 6 0M419 188l0 446-6 0-313-440 0-6z" horiz-adv-x="620" unicode="&#x34;"/><glyph d="M531 709l-252 0-63-204C233 510 252 513 273 513 345 513 406 488 455 439 504 389 529 328 529 256 529 179 503 116 451 66 398 15 334-10 257-10 212-10 169 1 130 24 90 46 58 76 34 115l44 18C97 103 123 79 156 62 189 44 223 35 258 35 321 35 374 56 417 99 460 141 481 194 481 257 481 316 459 366 416 407 373 448 321 468 261 468 222 468 184 457 146 434l98 320 287 0z" horiz-adv-x="620" unicode="&#x35;"/><glyph d="M340 764l39-29-166-235 2-2C247 511 280 518 315 518 387 518 449 492 501 440 552 387 578 325 578 253 578 187 553 127 503 72 452 17 388-10 309-10 236-10 173 16 121 67 68 118 42 180 42 253 42 312 60 368 97 419M310 35C370 35 422 57 465 100 508 143 530 194 530 254 530 314 508 366 465 409 422 452 370 473 310 473 249 473 198 452 155 409 112 366 90 314 90 254 90 193 112 142 155 99 198 56 249 35 310 35z" horiz-adv-x="620" unicode="&#x36;"/><glyph d="M528 709l-458 0 0 45 547 0-540-762-37 29z" horiz-adv-x="620" unicode="&#x37;"/><glyph d="M431 320C397 353 357 369 310 369 263 369 223 353 190 320 156 287 139 248 139 202 139 156 156 117 190 84 223 51 263 35 310 35 357 35 397 51 431 84 464 117 481 156 481 202 481 248 464 287 431 320M91 197C91 288 132 354 214 393 182 409 156 433 137 464 118 495 108 529 108 565 108 622 127 669 166 707 205 745 253 764 310 764 367 764 415 745 454 707 493 669 512 622 512 565 512 529 502 495 483 464 464 433 438 409 406 393 488 354 529 288 529 197 529 138 508 88 465 49 422 10 370-10 310-10 250-10 199 10 156 49 113 88 91 138 91 197M310 414C352 414 388 429 419 459 449 488 464 524 464 566 464 608 449 644 419 674 388 704 352 719 310 719 268 719 232 704 202 674 171 644 156 608 156 566 156 524 171 488 201 459 231 429 267 414 310 414z" horiz-adv-x="620" unicode="&#x38;"/><glyph d="M280-8l-39 29 167 235-2 2C373 245 340 238 305 238 233 238 171 264 120 316 68 368 42 430 42 502 42 575 69 637 122 688 175 739 238 764 311 764 386 764 450 738 501 687 552 636 578 572 578 497 578 442 560 389 523 336M466 655C423 698 371 719 311 719 251 719 199 698 156 655 112 612 90 561 90 501 90 441 112 390 156 347 199 304 251 283 311 283 371 283 423 304 466 347 509 390 530 441 530 501 530 561 509 612 466 655z" horiz-adv-x="620" unicode="&#x39;"/><glyph d="M126 60C134 68 144 72 155 72 166 72 176 68 184 60 192 52 196 42 196 31 196 20 192 10 184 2 176-6 166-10 155-10 144-10 134-6 126 2 118 10 114 20 114 31 114 42 118 52 126 60M126 460C134 468 144 472 155 472 166 472 176 468 184 460 192 452 196 442 196 431 196 420 192 410 184 402 176 394 166 390 155 390 144 390 134 394 126 402 118 410 114 420 114 431 114 442 118 452 126 460z" horiz-adv-x="310" unicode="&#x3a;"/><glyph d="M153 74l45-14-83-226-30 11M132 460C140 468 150 472 161 472 172 472 182 468 190 460 198 452 202 442 202 431 202 420 198 410 190 402 182 394 172 390 161 390 150 390 140 394 132 402 124 410 120 420 120 431 120 442 124 452 132 460z" horiz-adv-x="310" unicode="&#x3b;"/><glyph d="M106 256l460-215 0-46-512 235 0 53 512 223 0-46z" horiz-adv-x="620" unicode="&#x26;&#x61;&#x6d;&#x70;&#x3b;&#x6c;&#x74;&#x3b;"/><glyph d="M566 365l0-48-512 0 0 48M566 195l0-48-512 0 0 48z" horiz-adv-x="620" unicode="&#x3d;"/><glyph d="M54 41l460 215-460 204 0 46 512-223 0-53-512-235z" horiz-adv-x="620" unicode="&#x26;&#x61;&#x6d;&#x70;&#x3b;&#x67;&#x74;&#x3b;"/><glyph d="M354 303l48 0C404 257 390 219 361 188 332 157 293 142 246 142 202 142 165 156 134 185 103 213 88 248 88 291 88 334 101 368 126 392 151 415 186 433 231 444 252 450 268 455 279 458 290 461 303 466 318 473 333 480 344 488 351 497 358 506 364 517 369 532 374 546 377 563 377 582 377 620 365 652 340 679 315 706 283 719 244 719 207 719 176 707 151 683 126 658 113 628 114 592 114 571 116 553 119 539l-46 0C68 564 66 585 66 603 66 650 84 688 119 719 154 749 196 764 245 764 298 764 342 747 375 714 408 680 425 637 425 584 425 531 411 492 384 466 356 439 314 419 259 405 242 401 230 398 221 395 212 392 202 388 189 382 176 376 167 370 161 363 154 356 149 346 144 335 139 323 136 309 136 294 136 263 147 237 168 217 189 197 215 187 248 187 281 187 307 199 326 222 345 245 355 272 354 303M214 60C222 68 232 72 243 72 254 72 264 68 272 60 280 52 284 42 284 31 284 20 280 10 272 2 264-6 254-10 243-10 232-10 222-6 214 2 206 10 202 20 202 31 202 42 206 52 214 60z" horiz-adv-x="491" unicode="&#x3f;"/><glyph d="M337 193C368 194 397 206 424 231 451 256 469 283 478 312l47 147C531 480 524 503 504 528 484 553 457 566 423 566 390 566 358 551 328 522 297 492 274 457 257 417 240 376 231 339 231 304 231 273 241 246 260 225 279 203 304 192 337 193M551 541l15 47 44 0-103-324C504 255 502 248 501 243 500 238 499 231 499 224 498 217 499 211 502 208 505 204 509 201 516 198 522 195 530 193 541 193 582 193 621 221 660 278 699 334 718 390 718 445 718 525 688 591 627 644 566 696 496 722 417 722 326 722 247 687 181 618 115 548 82 466 82 373 82 281 116 201 183 134 250 66 329 32 419 32 476 32 529 44 578 67 627 90 665 124 692 168l56 0C719 114 676 71 618 39 560 6 494-10 419-10 312-10 223 28 150 104 77 180 40 272 40 380 40 486 77 577 151 652 225 727 313 764 415 764 512 764 593 733 660 672 727 611 760 534 760 441 760 364 735 296 686 238 636 180 583 151 527 151 509 151 493 155 480 164 466 173 457 185 452 200 414 167 371 151 322 151 280 151 247 165 224 193 201 220 189 255 189 298 189 373 212 443 258 509 304 575 362 608 431 608 482 608 522 586 551 541z" horiz-adv-x="800" unicode="&#x40;"/><glyph d="M486 248l-331 0-101-248-49 0 316 779 315-779-49 0M468 293l-147 364-148-364z" horiz-adv-x="641" unicode="&#x41;"/><glyph d="M129 367l0-322 115 0C271 45 289 45 300 46 311 46 326 48 347 53 367 58 384 65 398 74 447 107 472 152 472 208 472 237 465 263 452 288 438 313 419 331 394 343 362 359 309 367 235 367M274 0l-193 0 0 754 151 0C267 754 296 751 321 746 345 740 367 728 388 710 430 673 451 621 451 554 451 484 422 433 364 400 411 391 448 369 477 334 506 299 520 258 520 210 520 146 497 94 450 54 407 18 349 0 274 0M129 709l0-297 83 0C214 412 220 412 229 412 238 412 243 412 245 412 247 412 252 412 260 413 267 413 273 413 276 414 279 414 283 415 290 416 296 417 301 418 305 419 308 420 313 422 318 424 323 426 328 428 333 431 338 434 342 437 347 440 384 467 403 507 403 561 403 618 382 659 341 685 316 701 273 709 212 709z" horiz-adv-x="565" unicode="&#x42;"/><glyph d="M680 666l0-66C651 635 613 664 567 686 520 708 474 719 427 719 334 719 253 685 186 616 118 547 84 465 84 372 84 283 118 205 185 139 218 108 255 83 298 64 341 45 384 35 427 35 471 35 517 46 566 68 615 89 653 117 680 150l0-66C605 21 521-10 429-10 324-10 232 28 154 105 75 181 36 271 36 376 36 483 75 574 153 650 230 726 323 764 430 764 526 764 609 731 680 666z" horiz-adv-x="739" unicode="&#x43;"/><glyph d="M81 0l0 754 136 0C277 754 329 747 373 734 416 720 458 695 497 659 577 584 617 490 617 376 617 266 578 174 501 100 462 62 420 36 375 22 330 7 278 0 217 0M129 45l87 0C323 45 408 75 469 136 536 203 569 283 569 376 569 477 533 560 460 627 426 658 390 679 351 691 312 703 267 709 216 709l-87 0z" horiz-adv-x="652" unicode="&#x44;"/><glyph d="M441 709l-312 0 0-274 304 0 0-45-304 0 0-345 312 0 0-45-360 0 0 754 360 0z" horiz-adv-x="507" unicode="&#x45;"/><glyph d="M385 709l-256 0 0-274 249 0 0-45-249 0 0-390-48 0 0 754 304 0z" horiz-adv-x="444" unicode="&#x46;"/><glyph d="M470 363l318 0C789 310 784 264 773 224 762 183 740 146 709 112 674 73 631 43 580 22 529 1 476-10 423-10 318-10 228 28 151 104 74 180 36 270 36 374 36 482 75 574 152 650 229 726 321 764 429 764 561 764 670 705 756 588l-39-31C683 608 641 648 591 677 541 705 486 719 426 719 335 719 255 685 187 616 118 547 84 468 84 377 84 284 118 203 185 136 252 69 332 35 426 35 505 35 579 63 648 118 706 167 737 234 740 318l-270 0z" horiz-adv-x="824" unicode="&#x47;"/><glyph d="M129 434l458 0 0 320 48 0 0-754-48 0 0 389-458 0 0-389-48 0 0 754 48 0z" horiz-adv-x="716" unicode="&#x48;"/><glyph d="M129 754l0-754-48 0 0 754z" horiz-adv-x="210" unicode="&#x49;"/><glyph d="M89 754l48 0 0-740C137-40 128-82 109-112 90-143 55-158 4-158-23-158-48-150-70-135-92-120-109-101-121-76l36 27C-76-68-63-83-46-95-29-107-11-113 8-113 26-113 41-109 52-102 63-95 72-84 77-70 82-56 85-43 87-30 88-18 89-3 89 14z" horiz-adv-x="218" unicode="&#x4a;"/><glyph d="M129 402l358 352 64 0-369-363 392-391-63 0-362 360-20-20 0-340-48 0 0 754 48 0z" horiz-adv-x="569" unicode="&#x4b;"/><glyph d="M129 754l0-709 192 0 0-45-240 0 0 754z" horiz-adv-x="327" unicode="&#x4c;"/><glyph d="M842 0l-129 624-2 0-263-649-262 649-2 0-129-624-46 0 162 779 277-686 278 686 162-779z" horiz-adv-x="897" unicode="&#x4d;"/><glyph d="M762 754l0-779-633 673 0-648-48 0 0 764 633-668 0 658z" horiz-adv-x="843" unicode="&#x4e;"/><glyph d="M427 764C533 764 625 726 702 650 779 574 818 483 818 377 818 271 779 180 702 104 625 28 533-10 427-10 321-10 229 28 152 104 75 180 36 271 36 377 36 483 75 574 152 650 229 726 320 764 427 764M427 719C333 719 252 685 185 618 118 551 84 470 84 377 84 284 118 203 185 136 252 69 333 35 427 35 520 35 601 69 669 137 736 204 770 284 770 377 770 470 736 551 669 618 601 685 520 719 427 719z" horiz-adv-x="854" unicode="&#x4f;"/><glyph d="M129 358l0-358-48 0 0 754 133 0C250 754 281 751 307 746 332 740 356 728 377 710 422 671 445 620 445 555 445 527 440 499 429 472 418 445 402 423 382 406 345 374 289 358 214 358M129 403l87 0C273 403 317 417 348 444 381 474 397 512 397 557 397 610 378 651 340 679 314 699 270 709 208 709l-79 0z" horiz-adv-x="472" unicode="&#x50;"/><glyph d="M520 309l153-166C738 213 770 289 770 371 770 466 737 548 671 617 605 685 524 719 428 719 335 719 254 685 186 618 118 550 84 470 84 377 84 282 118 202 186 135 253 68 335 35 430 35 504 35 574 61 640 114l-188 195M742 0l-68 80C601 20 519-10 427-10 319-10 227 28 151 103 74 178 36 270 36 377 36 484 75 575 152 651 229 726 321 764 428 764 534 764 626 726 703 651 780 576 818 485 818 380 818 282 781 191 708 107l99-107z" horiz-adv-x="854" unicode="&#x51;"/><glyph d="M207 357l247-357-55 0-246 357-24 0 0-357-48 0 0 754 94 0C201 754 222 754 237 753 252 752 271 748 292 742 313 736 331 727 347 716 398 681 423 627 423 554 423 490 403 441 364 407 324 372 272 356 207 357M129 402l61 0C251 402 295 414 322 437 357 466 375 505 375 556 375 585 368 613 355 638 341 663 321 681 295 692 271 703 226 709 160 709l-31 0z" horiz-adv-x="488" unicode="&#x52;"/><glyph d="M464 658l-34-28C393 689 342 719 277 719 237 719 203 705 176 677 149 649 135 615 135 575 135 556 139 540 146 525 153 510 165 497 182 485 199 472 212 463 222 458 232 453 248 445 271 434l144-75C472 323 501 273 501 209 501 148 477 96 430 54 383 11 328-10 265-10 214-10 168 5 129 34 90 63 61 103 43 152l42 19C121 80 182 35 267 35 317 35 361 52 398 87 435 122 453 164 453 213 453 228 450 243 444 257 437 270 431 281 424 290 417 298 405 307 389 318 373 329 362 336 355 340 348 343 334 350 315 359 308 362 304 365 301 366l-136 72C113 470 87 515 87 573 87 629 105 675 141 711 177 746 223 764 280 764 318 764 354 755 387 736 420 717 446 691 464 658z" horiz-adv-x="544" unicode="&#x53;"/><glyph d="M249 709l0-709-48 0 0 709-195 0 0 45 438 0 0-45z" horiz-adv-x="450" unicode="&#x54;"/><glyph d="M538 298l0 456 48 0 0-470C586 251 586 225 585 208 584 191 579 170 571 145 563 120 551 98 535 78 510 49 480 28 444 13 407-2 369-10 330-10 291-10 253-2 217 13 180 28 150 49 125 78 109 98 97 120 89 145 81 170 77 191 76 208 75 225 74 251 74 284l0 470 48 0 0-456C122 267 123 244 124 227 125 210 128 190 134 167 140 143 149 123 161 108 178 85 203 68 235 55 267 42 299 35 330 35 361 35 393 42 425 55 457 68 482 85 499 108 511 123 520 143 526 167 532 190 536 210 537 227 538 244 538 267 538 298z" horiz-adv-x="660" unicode="&#x55;"/><glyph d="M53 754l224-644 2 0 223 644 48 0-274-779-271 779z" horiz-adv-x="555" unicode="&#x56;"/><glyph d="M60 754l212-648 282 686 282-686 209 648 48 0-254-779-288 697-287-697-252 779z" horiz-adv-x="1105" unicode="&#x57;"/><glyph d="M218 385l-198 369 53 0 173-324 173 324 53 0-197-369 207-385-52 0-184 341-182-341-52 0z" horiz-adv-x="494" unicode="&#x58;"/><glyph d="M255 322l-251 432 53 0 222-382 222 382 53 0-251-432 0-322-48 0z" horiz-adv-x="559" unicode="&#x59;"/><glyph d="M96 45l447 0 0-45-531 0 460 709-416 0 0 45 500 0z" horiz-adv-x="568" unicode="&#x5a;"/><glyph d="M113 703l0-855 122 0 0-51-170 0 0 957 170 0 0-51z" horiz-adv-x="300" unicode="&#x5b;"/><glyph d="M35 807l35 18 535-806-37-19z" horiz-adv-x="640" unicode="&#x5c;"/><glyph d="M187-152l0 855-122 0 0 51 170 0 0-957-170 0 0 51z" horiz-adv-x="300" unicode="&#x5d;"/><glyph d="M101 301l-47 0 230 453 52 0 230-453-46 0-210 408z" horiz-adv-x="620" unicode="&#x5e;"/><glyph d="M500-125l-500 0 0 50 500 0z" horiz-adv-x="500" unicode="&#x5f;"/><glyph d="M118 524l-45 13 83 227 30-11z" horiz-adv-x="259" unicode="&#x2018;"/><glyph d="M256 430C205 430 162 410 128 371 94 332 77 286 77 234 77 179 94 131 128 92 161 52 205 32 259 32 316 32 360 52 393 92 425 131 441 180 441 239 441 294 424 339 390 376 356 412 311 430 256 430M483 462l0-462-45 0 0 83-2 0C419 54 395 32 362 15 329-2 295-10 260-10 191-10 136 13 95 60 53 107 32 165 32 234 32 303 53 360 94 405 135 450 190 472 258 472 294 472 328 464 360 449 391 433 417 411 436 382l2 0 0 80z" horiz-adv-x="560" unicode="&#x61;"/><glyph d="M301 32C356 32 400 52 433 92 466 131 483 179 483 234 483 287 466 333 432 372 398 411 355 430 303 430 246 430 202 411 169 374 136 337 119 290 119 233 119 177 136 130 169 91 202 52 246 32 301 32M77 0l0 825 45 0 0-443 2 0C143 411 169 433 201 449 232 464 266 472 302 472 370 472 425 450 466 405 507 360 528 303 528 234 528 165 507 107 466 60 424 13 369-10 300-10 265-10 231-2 198 15 165 32 141 54 124 83l-2 0 0-83z" horiz-adv-x="560" unicode="&#x62;"/><glyph d="M431 415l0-60C385 405 331 430 268 430 215 430 170 410 133 371 96 332 77 285 77 232 77 179 95 132 132 92 169 52 214 32 267 32 335 32 392 60 437 115l0-61C388 11 332-10 269-10 201-10 145 13 100 60 55 107 32 164 32 232 32 299 55 356 101 403 146 449 203 472 270 472 333 472 386 453 431 415z" horiz-adv-x="477" unicode="&#x63;"/><glyph d="M259 32C316 32 360 52 393 92 425 131 441 180 441 239 441 294 424 339 390 376 356 412 311 430 256 430 205 430 162 410 128 371 94 332 77 286 77 234 77 179 94 131 128 92 161 52 205 32 259 32M438 0l0 83-2 0C419 54 395 32 362 15 329-2 295-10 260-10 191-10 136 13 95 60 53 107 32 165 32 234 32 303 53 360 94 405 135 450 190 472 258 472 294 472 328 464 360 449 391 433 417 411 436 382l2 0 0 443 45 0 0-825z" horiz-adv-x="560" unicode="&#x64;"/><glyph d="M478 227l-401 0C76 169 93 122 128 86 163 50 207 32 262 32 297 32 328 42 357 61 385 80 408 105 425 137l38-22C419 32 350-10 256-10 189-10 135 14 94 61 53 108 32 165 32 232 32 299 53 355 95 402 136 449 190 472 256 472 324 472 378 448 419 401 459 354 479 296 478 227M77 269l356 0C427 313 408 351 375 383 342 414 303 430 257 430 210 430 170 414 135 383 100 351 81 313 77 269z" horiz-adv-x="510" unicode="&#x65;"/><glyph d="M122 420l0-420-45 0 0 420-51 0 0 42 51 0 0 207C77 723 83 761 95 782 116 819 151 838 198 838 213 838 226 836 238 831l0-41C214 794 202 796 201 796 182 796 167 792 156 784 145 776 137 764 132 749 127 733 125 719 124 708 123 696 122 680 122 660l0-198 116 0 0-42z" horiz-adv-x="240" unicode="&#x66;"/><glyph d="M263 430C212 430 169 410 135 371 101 332 84 286 84 234 84 179 101 131 135 92 168 52 212 32 266 32 323 32 367 52 400 92 432 131 448 180 448 239 448 294 431 339 397 376 363 412 318 430 263 430M490 462l0-440C490-7 489-31 488-48 487-66 483-87 476-110 469-133 458-155 444-174 401-233 339-263 260-263 197-263 145-245 102-210 59-175 35-126 32-65l45 0C80-112 98-149 133-178 167-207 208-221 256-221 323-221 372-198 404-152 431-112 445-54 445 23l0 57-2 0C422 53 396 31 364 15 331-2 298-10 263-10 198-10 144 14 102 61 60 108 39 165 39 232 39 299 61 356 104 403 147 449 202 472 269 472 340 472 398 442 443 382l2 0 0 80z" horiz-adv-x="567" unicode="&#x67;"/><glyph d="M77 825l45 0 0-435 2 0C137 416 156 436 180 451 204 465 231 472 261 472 318 472 357 456 380 424 402 391 413 343 413 279l0-279-45 0 0 279C368 303 367 323 365 339 362 354 358 370 351 385 344 400 332 412 317 419 301 426 281 430 257 430 167 430 122 363 122 228l0-228-45 0z" horiz-adv-x="490" unicode="&#x68;"/><glyph d="M139 462l0-462-45 0 0 462M88 645C96 653 106 657 117 657 128 657 138 653 146 645 154 637 158 627 158 616 158 605 154 595 146 587 138 579 128 575 117 575 106 575 96 579 88 587 80 595 76 605 76 616 76 627 80 637 88 645z" horiz-adv-x="234" unicode="&#x69;"/><glyph d="M139 462l0-732-45 0 0 732M88 645C96 653 106 657 117 657 128 657 138 653 146 645 154 637 158 627 158 616 158 605 154 595 146 587 138 579 128 575 117 575 106 575 96 579 88 587 80 595 76 605 76 616 76 627 80 637 88 645z" horiz-adv-x="234" unicode="&#x6a;"/><glyph d="M122 825l0-559 190 196 58 0-194-200 259-262-59 0-229 231-25-26 0-205-45 0 0 825z" horiz-adv-x="427" unicode="&#x6b;"/><glyph d="M122 825l0-825-45 0 0 825z" horiz-adv-x="199" unicode="&#x6c;"/><glyph d="M122 462l0-58 2 0C135 425 151 442 172 454 193 466 215 472 240 472 302 472 345 444 370 388 382 415 400 436 424 451 448 465 475 472 505 472 560 472 597 456 618 425 638 393 648 348 648 290l0-290-45 0 0 296C603 339 597 372 584 395 571 418 544 430 504 430 425 430 385 375 385 266l0-266-45 0 0 285C340 329 333 364 319 391 305 417 278 430 237 430 160 430 122 371 122 254l0-254-45 0 0 462z" horiz-adv-x="725" unicode="&#x6d;"/><glyph d="M122 462l0-72 2 0C137 416 156 436 180 451 204 465 231 472 261 472 318 472 357 456 380 424 402 391 413 343 413 279l0-279-45 0 0 279C368 303 367 323 365 339 362 354 358 370 351 385 344 400 332 412 317 419 301 426 281 430 257 430 167 430 122 363 122 228l0-228-45 0 0 462z" horiz-adv-x="490" unicode="&#x6e;"/><glyph d="M272 472C340 472 398 449 445 403 492 356 515 299 515 231 515 163 492 106 445 60 398 13 340-10 272-10 206-10 150 14 103 61 56 108 32 164 32 230 32 297 55 354 102 401 149 448 205 472 272 472M269 430C215 430 170 410 133 371 96 332 77 285 77 230 77 177 96 130 133 91 170 52 215 32 269 32 326 32 373 51 412 89 451 127 470 174 470 230 470 287 451 334 413 373 374 411 326 430 269 430z" horiz-adv-x="547" unicode="&#x6f;"/><glyph d="M301 430C244 430 200 410 168 370 135 329 119 280 119 221 119 166 136 121 170 86 204 50 248 32 303 32 356 32 399 51 433 89 466 127 483 173 483 226 483 281 466 329 433 370 400 410 356 430 301 430M122 462l0-83 2 0C141 408 165 430 198 447 231 464 265 472 300 472 369 472 424 449 466 402 507 355 528 296 528 227 528 158 507 102 466 57 425 12 370-10 302-10 265-10 231-2 200 14 168 29 143 51 124 80l-2 0 0-350-45 0 0 732z" horiz-adv-x="560" unicode="&#x70;"/><glyph d="M259 430C202 430 158 410 126 370 93 329 77 280 77 221 77 166 94 121 128 86 162 50 206 32 261 32 314 32 357 51 391 89 424 127 441 173 441 226 441 281 424 329 391 370 358 410 314 430 259 430M483 462l0-732-45 0 0 350-2 0C417 51 392 29 361 14 329-2 295-10 258-10 190-10 135 12 94 57 53 101 32 157 32 226 32 296 53 355 95 402 136 449 191 472 260 472 295 472 329 464 362 447 395 430 419 408 436 379l2 0 0 83z" horiz-adv-x="560" unicode="&#x71;"/><glyph d="M122 462l0-60 2 0C144 449 177 472 224 472 240 472 256 468 273 461l-24-40C238 427 227 430 217 430 204 430 192 428 182 423 171 418 163 413 156 407 149 400 144 391 139 380 134 368 131 358 129 349 127 340 125 328 124 313 123 298 122 287 122 280 122 273 122 262 122 247 122 242 122 238 122 236l0-236-45 0 0 462z" horiz-adv-x="278" unicode="&#x72;"/><glyph d="M310 398l-39-20C255 413 228 430 190 430 170 430 152 423 136 409 119 394 111 377 111 358 111 338 119 322 134 309 149 296 168 286 190 279 212 271 234 263 257 254 279 245 298 230 313 210 328 190 336 165 336 134 336 92 322 58 293 31 264 4 229-10 187-10 148-10 115 1 86 23 57 45 37 75 28 112l44 14C91 63 130 32 187 32 216 32 240 42 261 62 281 82 291 107 291 136 291 161 283 180 268 193 253 206 230 217 201 227 180 235 163 242 152 247 141 252 127 259 112 270 96 280 84 292 77 306 70 320 66 336 66 355 66 389 78 417 103 439 128 461 157 472 192 472 216 472 239 465 262 451 284 437 300 419 310 398z" horiz-adv-x="375" unicode="&#x73;"/><glyph d="M127 420l0-420-45 0 0 420-51 0 0 42 51 0 0 165 45 0 0-165 81 0 0-42z" horiz-adv-x="209" unicode="&#x74;"/><glyph d="M357 462l45 0 0-277C402 163 402 147 402 137 401 126 399 113 394 96 389 79 383 64 374 52 343 11 297-10 236-10 175-10 129 11 98 52 89 64 83 79 78 96 73 113 71 126 71 137 70 147 70 163 70 185l0 277 45 0 0-261C115 175 116 153 119 136 121 119 126 101 134 84 141 67 154 54 171 45 188 36 209 32 236 32 263 32 285 36 302 45 319 54 331 67 339 84 346 101 351 119 354 136 356 153 357 175 357 201z" horiz-adv-x="472" unicode="&#x75;"/><glyph d="M51 462l167-381 164 381 46 0-211-487-212 487z" horiz-adv-x="433" unicode="&#x76;"/><glyph d="M51 462l163-379 163 404 164-404 160 379 46 0-209-487-163 399-162-399-208 487z" horiz-adv-x="752" unicode="&#x77;"/><glyph d="M192 244l-172 218 54 0 147-187 148 187 54 0-172-218 188-244-53 0-165 212-164-212-53 0z" horiz-adv-x="443" unicode="&#x78;"/><glyph d="M215-8l-222 470 47 0 197-418 177 418 46 0-310-732-46 0z" horiz-adv-x="460" unicode="&#x79;"/><glyph d="M98 42l375 0 0-42-470 0 378 420-317 0 0 42 411 0z" horiz-adv-x="480" unicode="&#x7a;"/><glyph d="M41 255l0 44C67 317 86 334 97 350 108 366 114 387 114 414l0 176C114 649 124 691 145 716 165 740 203 753 259 754l0-46C194 708 162 681 162 628l0-186C162 395 157 360 146 338 135 316 116 296 89 279l0-5C115 257 134 237 145 214 156 191 162 155 162 106l0-185C162-132 194-159 259-159l0-44C203-201 165-188 145-164 124-140 114-99 114-40l0 176C114 163 108 185 97 202 85 219 66 236 41 255z" horiz-adv-x="300" unicode="&#x7b;"/><glyph d="M136-214l0 1000 48 0 0-1000z" horiz-adv-x="320" unicode="&#x7c;"/><glyph d="M259 299l0-44C234 236 215 219 204 202 192 185 186 163 186 136l0-176C186-99 176-140 156-164 135-188 97-201 41-203l0 44C106-159 138-132 138-79l0 185C138 155 144 191 155 214 166 237 185 257 211 274l0 5C184 296 166 316 155 338 144 360 138 395 138 442l0 186C138 681 106 708 41 708l0 46C97 753 135 740 156 716 176 691 186 649 186 590l0-176C186 387 192 366 203 350 214 334 233 317 259 299z" horiz-adv-x="300" unicode="&#x7d;"/><glyph d="M201 314C227 314 266 302 318 278 325 275 334 271 347 265 359 259 369 254 376 251 383 248 390 245 399 242 408 239 415 238 421 238 456 238 489 265 518 318l48-23C520 222 471 186 420 186 395 186 359 199 311 224 262 249 225 262 201 262 180 262 163 256 148 243 133 230 117 212 101 188l-47 23C55 212 59 218 67 228 75 237 80 243 82 246 84 248 89 253 97 262 104 271 110 277 114 280 118 283 124 287 132 293 140 298 147 302 154 305 160 307 167 309 176 311 184 313 192 314 201 314z" horiz-adv-x="620" unicode="&#x7e;"/><glyph d="M131 460C139 468 149 472 160 472 171 472 181 468 189 460 197 452 201 442 201 431 201 420 197 410 189 402 181 394 171 390 160 390 149 390 139 394 131 402 123 410 119 420 119 431 119 442 123 452 131 460M184 321l0-611-48 0 0 611z" horiz-adv-x="320" unicode="&#xa1;"/><glyph d="M506 568l0-60C464 555 416 580 361 584l0-399C421 190 471 218 510 268l2 0 0-61C465 167 415 146 361 143l0-128-45 0 0 129C257 150 207 176 167 221 127 266 107 319 107 379 107 443 126 498 165 545 204 592 254 618 316 625l0 117 45 0 0-116C414 624 463 605 506 568M316 186l0 396C269 575 230 553 199 515 168 476 152 433 152 384 152 335 168 292 199 254 230 215 269 193 316 186z" horiz-adv-x="620" unicode="&#xa2;"/><glyph d="M91-10l-27 39C81 48 101 64 126 77 150 89 174 95 198 94 241 131 262 170 262 213l-3 29-124 0 0 45 112 0-81 138C147 454 134 480 125 502 116 523 112 548 112 575 112 629 132 674 172 710 212 746 259 764 313 764 368 764 415 745 452 706 489 667 506 620 505 565l-48 0C458 610 444 647 416 676 388 705 352 719 307 719 267 719 233 704 204 675 175 645 160 610 160 570 160 540 175 501 206 453 209 448 217 436 230 415 243 394 252 379 257 370 262 361 269 349 278 333 287 316 294 301 299 287l136 0 0-45-127 0 2-33C310 163 291 121 253 83l10-3C268 79 282 74 306 65 329 56 350 48 367 43 384 38 398 35 409 35 451 35 486 62 515 117l41-24C540 64 520 40 495 20 470 0 444-10 415-10 390-10 353 0 302 20 253 39 219 49 200 49 167 49 130 29 91-10z" horiz-adv-x="620" unicode="&#xa3;"/><glyph d="M272 772l32-18-447-771-32 18z" horiz-adv-x="129" unicode="&#x2044;"/><glyph d="M286 322l-43 75-161 0 0 45 134 0-181 312 58 0 217-377 217 377 58 0-181-312 134 0 0-45-160 0-44-75 204 0 0-45-204 0 0-277-48 0 0 277-204 0 0 45z" horiz-adv-x="620" unicode="&#xa5;"/><glyph d="M369 486l116 0-9-45-115 0-72-380C288 57 287 48 285 35 282 22 281 12 280 7 279 2 277-7 274-19 271-32 268-41 266-46 263-52 260-60 256-71 251-82 247-89 243-94 238-99 233-105 227-112 220-119 213-125 206-128 199-131 190-134 181-136 171-139 161-140 150-140 126-140 99-134 70-123l9 42C103-90 125-95 146-95 175-95 195-87 205-70 217-51 227-17 236 30l79 411-69 0 9 45 68 0 40 214C372 746 382 777 392 792 413 823 444 838 486 838 507 838 529 833 551 823l-9-41C525 789 508 793 490 793 479 793 470 792 462 790 454 787 447 783 442 778 436 772 431 767 427 762 423 757 420 750 417 741 414 731 412 723 411 718 410 713 408 704 406 692 404 679 403 671 402 667z" horiz-adv-x="620" unicode="&#x192;"/><glyph d="M310 155C346 155 377 168 404 194 431 220 444 251 444 287 444 323 431 354 404 381 377 408 346 421 310 421 273 421 242 408 215 381 188 354 175 323 175 287 175 251 188 220 215 194 242 168 273 155 310 155M144-11l48 0 0-13C193-66 202-97 220-117 238-138 268-148 309-148 347-148 378-138 402-117 426-96 438-68 438-31 438-10 434 7 427 22 419 37 406 49 389 60 371 71 357 78 346 83 335 88 317 94 292 102 238 120 197 142 169 168 141 194 127 233 127 284 127 323 137 358 157 389 176 419 204 441 240 456 207 472 182 492 167 516 152 539 144 569 144 606 144 656 161 695 194 723 227 750 268 764 319 764 378 764 420 749 444 720 467 691 481 645 486 583l-48 0C437 674 395 719 314 719 278 719 249 708 226 687 203 665 192 636 192 600 192 591 193 582 195 574 196 566 198 559 200 553 202 547 206 541 211 535 216 529 221 524 224 521 227 517 232 513 240 508 248 503 254 500 257 498 260 495 267 492 278 489 288 485 295 482 298 481 301 480 309 477 321 473 333 469 340 467 343 466 366 459 384 451 399 444 413 437 428 426 444 413 460 400 472 382 480 361 488 339 492 313 492 284 492 210 454 154 379 117 450 90 486 38 486-38 486-89 469-127 436-153 403-180 360-193 308-193 249-193 207-179 181-150 155-121 143-78 144-21z" horiz-adv-x="620" unicode="&#xa7;"/><glyph d="M611 685C556 738 487 764 404 764 317 764 244 732 187 669 134 610 103 535 92 442l-70 0-14-45 80 0 0-21C88 364 89 346 90 322l-68 0-14-45 88 0C111 192 144 124 196 72 251 17 321-10 406-10 451-10 487-6 513 1 539 10 567 25 596 47l0 58C569 80 544 63 523 54 494 41 454 35 404 35 334 35 276 58 229 105 187 148 159 206 145 277l343 0 14 45-364 0C137 345 136 361 136 372l0 25 389 0 14 45-399 0C150 531 179 600 227 649 273 696 330 719 399 719 444 719 482 713 511 700 540 687 569 664 596 633z" horiz-adv-x="620" unicode="&#xa4;"/><glyph d="M87 754l48 0-11-240-27 0z" horiz-adv-x="222" unicode="&#x27;"/><glyph d="M249 524l-45 13 83 227 30-11M118 524l-45 13 83 227 30-11z" horiz-adv-x="390" unicode="&#x201c;"/><glyph d="M209 320l121-142-29-27-146 169 146 169 29-27M89 320l121-142-29-27-146 169 146 169 29-27z" horiz-adv-x="397" unicode="&#xab;"/><glyph d="M89 320l121-142-29-27-146 169 146 169 29-27z" horiz-adv-x="277" unicode="&#x2039;"/><glyph d="M67 178l121 142-121 142 29 27 146-169-146-169z" horiz-adv-x="277" unicode="&#x203a;"/><glyph d="M380 462l0-462-45 0 0 462M329 645C337 653 347 657 358 657 369 657 379 653 387 645 395 637 399 627 399 616 399 605 395 595 387 587 379 579 369 575 358 575 347 575 337 579 329 587 321 595 317 605 317 616 317 627 321 637 329 645M122 420l0-420-45 0 0 420-51 0 0 42 51 0 0 207C77 723 83 761 95 782 116 819 151 838 198 838 213 838 226 836 238 831l0-41C214 794 202 796 201 796 182 796 167 792 156 784 145 776 137 764 132 749 127 733 125 719 124 708 123 696 122 680 122 660l0-198 116 0 0-42z" horiz-adv-x="475" unicode="&#xfb01;"/><glyph d="M122 420l0-420-45 0 0 420-51 0 0 42 51 0 0 207C77 723 83 761 95 782 116 819 151 838 198 838 213 838 226 836 238 831l0-41C214 794 202 796 201 796 182 796 167 792 156 784 145 776 137 764 132 749 127 733 125 719 124 708 123 696 122 680 122 660l0-198 116 0 0-42M362 825l0-825-45 0 0 825z" horiz-adv-x="439" unicode="&#xfb02;"/><glyph d="M0 342l500 0 0-45-500 0z" horiz-adv-x="500" unicode="&#x2013;"/><glyph d="M286 754l48 0 0-199 181 0 0-45-181 0 0-688-48 0 0 688-181 0 0 45 181 0z" horiz-adv-x="620" unicode="&#x2020;"/><glyph d="M286 754l48 0 0-199 181 0 0-45-181 0 0-428 181 0 0-45-181 0 0-215-48 0 0 215-181 0 0 45 181 0 0 428-181 0 0 45 181 0z" horiz-adv-x="620" unicode="&#x2021;"/><glyph d="M126 285C134 293 144 297 155 297 166 297 176 293 184 285 192 277 196 267 196 256 196 245 192 235 184 227 176 219 166 215 155 215 144 215 134 219 126 227 118 235 114 245 114 256 114 267 118 277 126 285z" horiz-adv-x="310" unicode="&#xb7;"/><glyph d="M282-178l0 548C232 369 191 388 159 425 126 462 110 507 110 560 110 689 178 754 313 754l197 0 0-45-40 0 0-887-48 0 0 887-92 0 0-887z" horiz-adv-x="620" unicode="&#xb6;"/><glyph d="M499 377C499 325 481 281 445 244 409 207 364 189 311 189 258 189 213 207 177 244 140 281 122 325 122 377 122 430 140 474 177 511 213 548 258 566 311 566 364 566 409 548 445 511 481 474 499 430 499 377z" horiz-adv-x="620" unicode="&#x2022;"/><glyph d="M141 74l45-14-83-226-30 11z" horiz-adv-x="259" unicode="&#x201a;"/><glyph d="M141 74l45-14-83-226-30 11M272 74l45-14-83-226-30 11z" horiz-adv-x="390" unicode="&#x201e;"/><glyph d="M141 764l45-13-83-227-30 11M272 764l45-13-83-227-30 11z" horiz-adv-x="390" unicode="&#x201d;"/><glyph d="M67 178l121 142-121 142 29 27 146-169-146-169M187 178l121 142-121 142 29 27 146-169-146-169z" horiz-adv-x="397" unicode="&#xbb;"/><glyph d="M138 63C146 71 156 75 167 75 178 75 188 71 196 63 204 55 208 45 208 34 208 23 204 13 196 5 188-3 178-7 167-7 156-7 146-3 138 5 130 13 126 23 126 34 126 45 130 55 138 63M471 63C479 71 489 75 500 75 511 75 521 71 529 63 537 55 541 45 541 34 541 23 537 13 529 5 521-3 511-7 500-7 489-7 479-3 471 5 463 13 459 23 459 34 459 45 463 55 471 63M804 63C812 71 822 75 833 75 844 75 854 71 862 63 870 55 874 45 874 34 874 23 870 13 862 5 854-3 844-7 833-7 822-7 812-3 804 5 796 13 792 23 792 34 792 45 796 55 804 63z" horiz-adv-x="1000" unicode="&#x2026;"/><glyph d="M1006 140C1006 98 991 63 962 35 933 7 897-7 854-7 811-7 775 7 746 35 717 63 702 98 702 140 702 183 717 219 746 247 775 275 811 289 854 289 897 289 933 275 962 247 991 219 1006 183 1006 140M744 140C744 111 755 87 777 66 798 45 824 35 854 35 884 35 910 45 932 66 953 87 964 111 964 140 964 170 953 195 932 216 910 237 884 247 854 247 824 247 798 237 777 216 755 195 744 170 744 140M332 612C332 570 317 535 288 507 259 479 223 465 180 465 137 465 101 479 72 507 43 535 28 570 28 612 28 655 43 691 72 719 101 747 137 761 180 761 223 761 259 747 288 719 317 691 332 655 332 612M70 612C70 583 81 559 103 538 124 517 150 507 180 507 210 507 236 517 258 538 279 559 290 583 290 612 290 642 279 667 258 688 236 709 210 719 180 719 150 719 124 709 103 688 81 667 70 642 70 612M538 771l33-17-448-771-31 18M636 140C636 98 621 63 592 35 563 7 527-7 484-7 441-7 405 7 376 35 347 63 332 98 332 140 332 183 347 219 376 247 405 275 441 289 484 289 527 289 563 275 592 247 621 219 636 183 636 140M374 140C374 111 385 87 407 66 428 45 454 35 484 35 514 35 540 45 562 66 583 87 594 111 594 140 594 170 583 195 562 216 540 237 514 247 484 247 454 247 428 237 407 216 385 195 374 170 374 140z" horiz-adv-x="1034" unicode="&#x2030;"/><glyph d="M137 159l-48 0C87 205 101 243 130 274 159 305 198 320 245 320 289 320 326 306 357 278 388 249 403 214 403 171 403 128 391 94 366 71 341 47 305 29 260 18 239 12 223 8 212 5 201 2 189-4 174-11 159-18 148-26 141-35 134-44 127-55 122-69 117-84 114-101 114-120 114-158 127-190 152-217 177-244 208-257 247-257 284-257 316-245 341-220 366-196 378-166 377-130 377-109 375-91 372-77l46 0C423-102 425-123 425-141 425-188 407-226 372-256 337-287 295-302 246-302 193-302 149-285 116-251 83-218 66-175 66-122 66-69 80-30 108-3 135 23 177 43 232 57 249 61 261 64 270 67 279 70 289 74 302 80 315 86 324 93 331 100 337 107 343 116 348 128 353 139 355 153 355 168 355 199 345 225 324 245 303 265 276 275 243 275 210 275 184 264 165 241 146 218 136 190 137 159M219 460C227 468 237 472 248 472 259 472 269 468 277 460 285 452 289 442 289 431 289 420 285 410 277 402 269 394 259 390 248 390 237 390 227 394 219 402 211 410 207 420 207 431 207 442 211 452 219 460z" horiz-adv-x="491" unicode="&#xbf;"/><glyph d="M75 695l61 19 101-147-38-17z" horiz-adv-x="313" unicode="&#x60;"/><glyph d="M176 714l61-19-124-145-38 17z" horiz-adv-x="313" unicode="&#xb4;"/><glyph d="M75 588l138 106 138-106-38-29-100 77-102-77z" horiz-adv-x="426" unicode="&#x2c6;"/><glyph d="M105 586l-30 22C82 626 93 641 107 654 120 666 136 672 153 672 169 672 192 666 223 653 257 640 278 633 286 633 309 633 325 647 334 674l29-22C358 634 348 619 333 606 318 593 301 587 282 587 271 587 249 594 217 607 186 620 164 627 149 627 129 627 114 613 105 586z" horiz-adv-x="439" unicode="&#x2dc;"/><glyph d="M75 674l305 0 0-45-305 0z" horiz-adv-x="456" unicode="&#xaf;"/><glyph d="M75 674l44 0C132 633 164 613 217 613 270 613 302 633 315 674l43 0C354 641 338 615 311 596 284 577 252 568 217 568 182 568 150 577 123 596 95 615 79 641 75 674z" horiz-adv-x="434" unicode="&#x2d8;"/><glyph d="M129 662C136 670 146 674 157 674 168 674 178 670 186 662 193 654 197 645 197 634 197 623 193 614 186 606 178 598 168 594 157 594 146 594 136 598 129 606 121 614 117 623 117 634 117 645 121 654 129 662z" horiz-adv-x="313" unicode="&#x2d9;"/><glyph d="M89 662C96 670 106 674 117 674 128 674 138 670 146 662 153 654 157 645 157 634 157 623 153 614 146 606 138 598 128 594 117 594 106 594 96 598 89 606 81 614 77 623 77 634 77 645 81 654 89 662M276 662C284 670 293 674 304 674 315 674 324 670 332 662 340 654 344 645 344 634 344 623 340 614 332 606 324 598 315 594 304 594 293 594 284 598 276 606 268 614 264 623 264 634 264 645 268 654 276 662z" horiz-adv-x="421" unicode="&#xa8;"/><glyph d="M101 689C118 706 138 714 162 714 186 714 207 706 224 689 241 672 249 651 249 627 249 603 241 583 224 566 207 549 186 540 162 540 138 540 118 549 101 566 84 583 75 603 75 627 75 651 84 672 101 689M196 660C187 669 175 674 162 674 149 674 138 669 129 660 120 651 115 640 115 627 115 614 120 603 129 594 138 585 149 580 162 580 175 580 187 585 196 594 205 603 209 614 209 627 209 640 205 651 196 660z" horiz-adv-x="324" unicode="&#x2da;"/><glyph d="M224-42l-111-141-38 19 93 144z" horiz-adv-x="299" unicode="&#xb8;"/><glyph d="M177 714l61-19-124-145-38 17M310 714l61-19-124-145-38 17z" horiz-adv-x="446" unicode="&#x2dd;"/><glyph d="M153 2l43 0 0-2C145-37 119-72 119-105 119-124 126-139 139-149 152-159 168-164 187-164 200-164 220-160 245-152l-10-44C214-202 197-205 183-205 154-205 129-196 108-178 86-161 75-138 75-109 75-68 101-31 153 2z" horiz-adv-x="321" unicode="&#x2db;"/><glyph d="M351 666l-138-107-138 107 38 28 100-76 102 76z" horiz-adv-x="426" unicode="&#x2c7;"/><glyph d="M130 342l740 0 0-45-740 0z" horiz-adv-x="1000" unicode="&#x2014;"/><glyph d="M480 248l-323 0-98-248-54 0 304 754 329 0 17-45-311 0 112-274 303 0 19-45-303 0 140-345 312 0 18-45-365 0M461 293l-144 355-141-355z" horiz-adv-x="942" unicode="&#xc6;"/><glyph d="M163 730C132 730 107 719 87 697 66 675 56 649 56 620 56 590 66 564 86 542 106 520 132 509 165 509 200 509 229 520 250 542 271 564 281 591 281 623 281 653 270 678 248 699 225 720 197 730 163 730M315 758l0-277-29 0 0 50-2 0C273 514 257 500 236 490 215 480 193 475 170 475 125 475 90 489 63 517 36 545 22 580 22 621 22 662 35 697 62 724 89 751 124 764 169 764 220 764 258 746 284 710l2 0 0 48z" horiz-adv-x="336" unicode="&#xaa;"/><glyph d="M81 0l0 354-81-57 0 49 81 57 0 351 48 0 0-318 128 89 0-49-128-89 0-342 192 0 0-45z" horiz-adv-x="327" unicode="&#x141;"/><glyph d="M171 151l481 481C587 690 512 719 427 719 333 719 252 685 185 618 118 551 84 470 84 377 84 291 113 216 171 151M680 605l-481-482C265 64 341 35 427 35 520 35 601 69 669 137 736 204 770 284 770 377 770 465 740 541 680 605M49 29l90 90C70 193 36 279 36 377 36 483 75 574 152 650 229 726 320 764 427 764 524 764 610 731 685 665l91 91 29-26-92-92C783 564 818 477 818 377 818 271 779 180 702 104 625 28 533-10 427-10 326-10 240 24 167 91l-91-91z" horiz-adv-x="854" unicode="&#xd8;"/><glyph d="M767 0l0 194-2 0C735 131 689 82 627 45 564 8 497-10 426-10 377-10 328 0 281 19 234 38 192 65 156 99 76 175 36 268 36 377 36 484 75 575 153 651 230 726 323 764 430 764 500 764 566 745 627 708 688 670 734 620 765 558l2 0 0 196 360 0 0-45-312 0 0-274 305 0 0-45-305 0 0-345 312 0 0-45M84 377C84 280 119 199 189 133 220 102 257 78 299 61 340 44 383 35 427 35 472 35 517 44 560 63 603 82 641 108 673 141 735 206 766 285 766 377 766 470 733 551 667 618 601 685 522 719 429 719 336 719 256 685 187 618 118 550 84 470 84 377z" horiz-adv-x="1193" unicode="&#x152;"/><glyph d="M163 764C207 764 244 750 275 723 306 695 321 661 321 620 321 579 306 544 275 517 244 489 207 475 163 475 120 475 84 489 53 518 22 546 7 580 7 619 7 659 22 693 53 722 83 750 120 764 163 764M161 730C129 730 102 719 80 697 57 674 46 648 46 618 46 589 57 563 80 542 102 520 129 509 161 509 194 509 223 520 247 541 270 562 282 587 282 618 282 649 270 676 247 698 224 719 195 730 161 730z" horiz-adv-x="328" unicode="&#xba;"/><glyph d="M416 268l356 0C767 311 747 349 713 382 679 414 640 430 596 430 549 430 509 414 474 382 439 350 420 312 416 268M222 237C197 237 174 234 152 229 130 224 110 213 93 197 75 180 66 160 66 135 66 110 74 89 91 73 108 56 127 45 148 40 169 35 192 32 217 32 254 32 289 41 322 58 355 75 371 101 371 135 371 170 356 196 326 213 296 229 261 237 222 237M763 136l39-26C778 73 748 43 713 22 678 1 639-10 596-10 556-10 518 0 483 21 448 41 422 69 407 104l-2 0C395 66 372 38 335 19 298 0 257-10 213-10 164-10 119 2 80 27 41 52 21 87 21 134 21 182 42 218 83 243 124 267 171 279 222 279 283 279 333 263 371 230 372 289 359 337 332 374 305 411 264 430 207 430 163 430 111 416 52 388l0 46C102 459 157 472 216 472 259 472 296 461 328 439 359 416 382 385 397 344 414 382 440 413 476 437 512 460 551 472 593 472 660 472 714 448 755 401 796 353 816 295 817 226l-401 0C417 172 435 126 469 89 502 51 545 32 598 32 633 32 664 42 693 61 722 80 745 105 763 136z" horiz-adv-x="849" unicode="&#xe6;"/><glyph d="M139 462l0-462-45 0 0 462z" horiz-adv-x="234" unicode="&#x131;"/><glyph d="M92 0l0 391-75-54 0 45 75 54 0 389 45 0 0-357 75 53 0-45-75-53 0-423z" horiz-adv-x="229" unicode="&#x142;"/><glyph d="M119 108l278 278C360 415 318 430 269 430 215 430 170 410 133 371 96 332 77 285 77 230 77 184 91 143 119 108M425 357l-280-277C180 48 222 32 269 32 326 32 373 51 412 89 451 127 470 174 470 230 470 279 455 322 425 357M28 17l60 60C51 120 32 171 32 230 32 297 55 354 102 401 149 448 205 472 272 472 332 472 384 454 428 417l63 63 28-29-62-62C496 346 515 294 515 231 515 163 492 106 445 60 398 13 340-10 272-10 211-10 159 10 115 50l-60-60z" horiz-adv-x="547" unicode="&#xf8;"/><glyph d="M913 227l-399 0C511 174 527 128 563 90 599 51 643 32 696 32 771 32 825 68 859 139l38-23C877 76 849 45 814 23 778 1 737-10 692-10 648-10 608 3 571 28 534 53 507 85 491 126 472 85 442 53 403 28 363 3 320-10 275-10 207-10 150 13 103 60 56 106 32 163 32 230 32 298 56 355 104 402 151 449 209 472 277 472 322 472 365 460 405 436 444 411 473 379 491 338 507 380 533 413 569 437 605 460 646 472 691 472 760 472 815 449 855 402 894 355 914 297 913 227M514 269l354 0C862 313 843 351 810 383 777 414 738 430 692 430 645 430 605 414 571 383 537 351 518 313 514 269M276 430C219 430 171 411 134 372 96 333 77 284 77 227 77 175 96 130 135 91 173 52 218 32 271 32 326 32 373 51 412 90 450 129 469 175 469 230 469 284 450 331 413 371 376 410 330 430 276 430z" horiz-adv-x="945" unicode="&#x153;"/><glyph d="M77 0l0 420-49 0 0 42 49 0 0 188C77 710 88 754 111 781 141 819 185 838 244 838 290 838 328 823 358 792 388 761 403 722 403 676 403 645 395 618 380 593 364 568 342 550 315 540l0-2C370 523 415 490 450 441 485 391 502 337 502 278 502 203 476 139 423 86 370 32 306 1 231-6l0 42C294 45 348 72 392 117 435 162 457 215 457 278 457 343 436 397 394 440 351 483 297 507 231 514l0 42C269 557 300 568 323 591 346 614 358 644 358 681 358 715 347 743 324 764 301 785 272 796 237 796 192 796 160 780 141 748 128 726 122 688 122 634l0-634z" horiz-adv-x="534" unicode="&#xdf;"/><glyph d="M54 232l0 48 512 0 0-48M281 70C289 78 299 82 310 82 321 82 331 78 339 70 347 62 351 52 351 41 351 30 347 20 339 12 331 4 321 0 310 0 299 0 289 4 281 12 273 20 269 30 269 41 269 52 273 62 281 70M281 500C289 508 299 512 310 512 321 512 331 508 339 500 347 492 351 482 351 471 351 460 347 450 339 442 331 434 321 430 310 430 299 430 289 434 281 442 273 450 269 460 269 471 269 482 273 492 281 500z" horiz-adv-x="620" unicode="&#xf7;"/><glyph d="M804 116l66 0 0-34-66 0 0-82-34 0 0 82-259 0 0 4 287 382 6 0M770 116l0 251-5 0-186-247 0-4M197 525l0 34C226 559 251 567 270 584 289 600 299 622 299 649 299 673 290 693 272 708 254 723 231 730 204 730 146 730 115 704 112 652l-34 0C81 687 94 714 116 734 138 754 168 764 205 764 240 764 271 753 296 730 321 707 333 680 333 648 333 625 326 604 313 585 300 566 282 552 259 543 283 534 303 520 318 500 333 479 340 457 340 433 340 396 326 364 299 339 271 313 237 300 196 300 159 300 127 311 100 333 73 355 60 383 60 417l34 0C97 391 108 371 125 356 142 341 166 334 195 334 226 334 253 343 274 362 295 380 306 403 306 431 306 460 296 483 275 500 254 517 228 525 197 525M702 772l32-18-447-771-32 18z" horiz-adv-x="930" unicode="&#xbe;"/><glyph d="M176 720l-76 0 15 34 95 0 0-448-34 0M764 116l66 0 0-34-66 0 0-82-34 0 0 82-259 0 0 4 287 382 6 0M730 116l0 251-5 0-186-247 0-4M649 772l32-18-447-771-32 18z" horiz-adv-x="930" unicode="&#xbc;"/><glyph d="M210 720l-76 0 15 34 95 0 0-448-34 0z" horiz-adv-x="372" unicode="&#xb9;"/><glyph d="M279 256l-225 222 30 34 226-226 226 226 30-34-224-222 224-224-30-32-226 225-225-225-31 32z" horiz-adv-x="620" unicode="&#xd7;"/><glyph d="M401-10C294-10 202 28 127 104 51 180 13 271 13 378 13 485 51 576 127 651 202 726 294 764 401 764 508 764 599 726 674 651 749 576 787 485 787 378 787 271 749 179 674 104 599 28 508-10 401-10M401 38C495 38 575 71 641 137 706 203 739 283 739 378 739 472 706 552 641 618 575 683 495 716 401 716 306 716 226 683 160 618 94 552 61 472 61 378 61 283 94 203 160 137 226 71 306 38 401 38M462 353l128-195-62 0-121 195-99 0 0-195-48 0 0 423 185 0C499 581 538 572 561 553 584 534 595 506 595 469 595 394 551 356 462 353M308 401l83 0C395 401 402 401 412 401 422 400 430 400 435 401 440 401 448 401 458 402 467 402 475 403 481 404 487 405 494 407 502 409 509 411 515 414 520 417 525 420 529 425 534 430 539 435 542 440 544 447 546 454 547 461 547 470 547 512 509 533 433 533l-125 0z" horiz-adv-x="800" unicode="&#xae;"/><glyph d="M81 0l0 754 48 0 0-160 85 0C250 594 281 591 307 586 332 580 356 568 377 550 422 511 445 460 445 395 445 367 440 339 429 312 418 285 402 263 382 246 345 214 289 198 214 198l-85 0 0-198M129 243l87 0C273 243 317 257 348 284 381 314 397 352 397 397 397 450 378 491 340 519 314 539 270 549 208 549l-79 0z" horiz-adv-x="472" unicode="&#xde;"/><glyph d="M136-89l0 250 48 0 0-250M136 411l0 250 48 0 0-250z" horiz-adv-x="320" unicode="&#xa6;"/><glyph d="M129 709l0-275 173 0 0-45-173 0 0-344 87 0C323 45 408 75 469 136 536 203 569 283 569 376 569 477 533 560 460 627 426 658 390 679 351 691 312 703 267 709 216 709M81 0l0 389-81 0 0 45 81 0 0 320 136 0C277 754 329 747 373 734 416 720 458 695 497 659 577 584 617 490 617 376 617 266 578 174 501 100 462 62 420 36 375 22 330 7 278 0 217 0z" horiz-adv-x="652" unicode="&#xd0;"/><glyph d="M176 720l-76 0 15 34 95 0 0-448-34 0M606 34l222 0 0-34-302 0 182 185C726 203 740 218 749 229 758 240 769 255 780 275 791 294 796 312 796 328 796 357 785 380 764 398 742 415 715 424 683 424 649 424 622 415 601 397 580 379 570 355 570 325l-34 0C537 361 548 389 567 410 597 442 636 458 683 458 724 458 758 445 787 420 816 395 830 363 830 326 830 282 801 231 742 172M605 772l32-18-447-771-32 18z" horiz-adv-x="930" unicode="&#xbd;"/><glyph d="M54 232l0 48 512 0 0-48z" horiz-adv-x="620" unicode="&#x2212;"/><glyph d="M431 415l0-60C385 405 331 430 268 430 215 430 170 410 133 371 96 332 77 285 77 232 77 179 95 132 132 92 169 52 214 32 267 32 335 32 392 60 437 115l0-61C388 11 332-10 269-10 201-10 145 13 100 60 55 107 32 164 32 232 32 299 55 356 101 403 146 449 203 472 270 472 333 472 386 453 431 415M313-42l-111-141-38 19 93 144z" horiz-adv-x="477" unicode="&#xe7;"/><glyph d="M89 798l32 30C170 799 217 768 260 733l155 87 25-33-147-82C362 644 416 576 456 501 495 425 515 345 515 260 515 171 491 104 444 59 396 13 339-10 272-10 205-10 149 14 102 61 55 108 32 165 32 231 32 296 56 353 103 401 150 449 207 473 275 473 338 473 394 450 444 403 425 457 402 505 374 547 346 589 306 634 253 682l-146-82-25 34 137 75C187 736 144 765 89 798M269 430C215 430 170 410 133 371 96 332 77 285 77 230 77 177 96 130 133 91 170 52 215 32 269 32 326 32 373 51 412 89 451 127 470 174 470 230 470 287 451 334 413 373 374 411 326 430 269 430z" horiz-adv-x="547" unicode="&#xf0;"/><glyph d="M286 320l0 192 48 0 0-192 232 0 0-48-232 0 0-192-48 0 0 192-232 0 0 48M54 0l0 48 512 0 0-48z" horiz-adv-x="620" unicode="&#xb1;"/><glyph d="M680 666l0-66C651 635 613 664 567 686 520 708 474 719 427 719 334 719 253 685 186 616 118 547 84 465 84 372 84 283 118 205 185 139 218 108 255 83 298 64 341 45 384 35 427 35 471 35 517 46 566 68 615 89 653 117 680 150l0-66C605 21 521-10 429-10 324-10 232 28 154 105 75 181 36 271 36 376 36 483 75 574 153 650 230 726 323 764 430 764 526 764 609 731 680 666M444-42l-111-141-38 19 93 144z" horiz-adv-x="739" unicode="&#xc7;"/><glyph d="M301 430C244 430 200 410 168 370 135 329 119 280 119 221 119 166 136 121 170 86 204 50 248 32 303 32 356 32 399 51 433 89 466 127 483 173 483 226 483 281 466 329 433 370 400 410 356 430 301 430M122 80l0-350-45 0 0 1095 45 0 0-446 2 0C141 408 165 430 198 447 231 464 265 472 300 472 369 472 424 449 466 402 507 355 528 296 528 227 528 158 507 102 466 57 425 12 370-10 302-10 265-10 231-2 200 14 168 29 143 51 124 80z" horiz-adv-x="560" unicode="&#xfe;"/><glyph d="M401-10C294-10 202 28 127 104 51 180 13 271 13 378 13 485 51 576 127 651 202 726 294 764 401 764 508 764 599 726 674 651 749 576 787 485 787 378 787 271 749 179 674 104 599 28 508-10 401-10M401 38C495 38 575 71 641 137 706 203 739 283 739 378 739 472 706 552 641 618 575 683 495 716 401 716 306 716 226 683 160 618 94 552 61 472 61 378 61 283 94 203 160 137 226 71 306 38 401 38M549 308l48 0C592 263 573 226 539 199 504 172 464 158 418 158 355 158 303 179 264 222 224 264 204 317 204 381 204 446 223 500 261 541 299 582 350 603 415 603 462 603 503 590 537 564 570 538 590 502 597 457l-48 0C544 486 528 510 503 528 477 546 448 555 416 555 366 555 326 539 297 506 267 473 252 431 252 382 252 334 268 293 299 258 330 223 369 206 418 206 450 206 479 215 505 234 530 252 545 277 549 308z" horiz-adv-x="800" unicode="&#xa9;"/><glyph d="M518 99l0 218-464 0 0 48 512 0 0-266z" horiz-adv-x="620" unicode="&#xac;"/><glyph d="M114 340l222 0 0-34-302 0 182 185C234 509 248 524 257 535 266 546 277 561 288 581 299 600 304 618 304 634 304 663 293 686 272 704 250 721 223 730 191 730 157 730 130 721 109 703 88 685 78 661 78 631l-34 0C45 667 56 695 75 716 105 748 144 764 191 764 232 764 266 751 295 726 324 701 338 669 338 632 338 588 309 537 250 478z" horiz-adv-x="372" unicode="&#xb2;"/><glyph d="M183 525l0 34C212 559 237 567 256 584 275 600 285 622 285 649 285 673 276 693 258 708 240 723 217 730 190 730 132 730 101 704 98 652l-34 0C67 687 80 714 102 734 124 754 154 764 191 764 226 764 257 753 282 730 307 707 319 680 319 648 319 625 312 604 299 585 286 566 268 552 245 543 269 534 289 520 304 500 319 479 326 457 326 433 326 396 312 364 285 339 257 313 223 300 182 300 145 300 113 311 86 333 59 355 46 383 46 417l34 0C83 391 94 371 111 356 128 341 152 334 181 334 212 334 239 343 260 362 281 380 292 403 292 431 292 460 282 483 261 500 240 517 214 525 183 525z" horiz-adv-x="372" unicode="&#xb3;"/><glyph d="M378 754l0-42-139 0 0-379-42 0 0 379-139 0 0 42M461 754l72 0 137-327 2 0 139 327 72 0 0-421-42 0 0 379-4 0-165-379-2 0-163 379-4 0 0-379-42 0z" horiz-adv-x="940" unicode="&#x2122;"/><glyph d="M50 614C49 655 64 691 94 720 123 749 159 764 200 764 241 764 277 749 306 720 335 691 350 655 350 614 350 573 335 537 306 508 277 479 241 464 200 464 159 464 123 479 94 508 65 537 50 573 50 614M199 722C169 722 144 712 123 691 102 670 92 644 92 614 92 583 102 558 123 537 144 516 169 506 200 506 230 506 256 516 277 537 298 558 308 583 308 614 308 644 298 670 277 691 256 712 230 722 199 722z" horiz-adv-x="400" unicode="&#xb0;"/><glyph d="M115-270l-45 0 0 732 45 0 0-228C115 210 117 188 120 167 123 146 129 124 137 103 145 81 158 64 175 51 192 38 212 32 236 32 263 32 285 36 302 45 319 54 331 67 339 84 346 101 351 119 354 136 356 153 357 175 357 201l0 261 45 0 0-277C402 163 402 147 402 137 401 126 399 113 394 96 389 79 383 64 374 52 343 11 297-10 236-10 213-10 190-3 166 12 142 27 126 47 117 72l-2 0z" horiz-adv-x="472" unicode="&#x3bc;"/><glyph d="M486 248l-331 0-101-248-49 0 316 779 315-779-49 0M468 293l-147 364-148-364M340 971l61-19-124-145-38 17z" horiz-adv-x="641" unicode="&#xc1;"/><glyph d="M486 248l-331 0-101-248-49 0 316 779 315-779-49 0M468 293l-147 364-148-364M183 845l138 106 138-106-38-29-100 77-102-77z" horiz-adv-x="641" unicode="&#xc2;"/><glyph d="M486 248l-331 0-101-248-49 0 316 779 315-779-49 0M468 293l-147 364-148-364M199 920C206 927 216 931 227 931 238 931 248 927 256 920 263 912 267 902 267 891 267 880 263 870 256 863 248 855 238 851 227 851 216 851 206 855 199 863 191 870 187 880 187 891 187 902 191 912 199 920M386 920C394 927 403 931 414 931 425 931 434 927 442 920 450 912 454 902 454 891 454 880 450 870 442 863 434 855 425 851 414 851 403 851 394 855 386 863 378 870 374 880 374 891 374 902 378 912 386 920z" horiz-adv-x="641" unicode="&#xc4;"/><glyph d="M486 248l-331 0-101-248-49 0 316 779 315-779-49 0M468 293l-147 364-148-364M239 952l61 19 101-147-38-17z" horiz-adv-x="641" unicode="&#xc0;"/><glyph d="M486 248l-331 0-101-248-49 0 316 779 315-779-49 0M468 293l-147 364-148-364M260 946C277 963 297 971 321 971 345 971 366 963 383 946 400 929 408 908 408 884 408 860 400 840 383 823 366 806 345 797 321 797 297 797 277 806 260 823 243 840 234 860 234 884 234 908 243 929 260 946M354 918C345 927 334 931 321 931 308 931 297 927 288 918 279 909 274 897 274 884 274 871 279 860 288 851 297 842 308 837 321 837 334 837 345 842 354 851 363 860 368 871 368 884 368 897 363 909 354 918z" horiz-adv-x="641" unicode="&#xc5;"/><glyph d="M486 248l-331 0-101-248-49 0 316 779 315-779-49 0M468 293l-147 364-148-364M206 843l-30 22C183 883 194 898 208 911 221 923 237 929 254 929 270 929 293 923 324 910 358 897 379 890 387 890 410 890 426 904 435 931l29-22C459 891 449 876 434 863 419 850 402 844 383 844 372 844 350 851 318 864 287 877 265 884 250 884 230 884 215 870 206 843z" horiz-adv-x="641" unicode="&#xc3;"/><glyph d="M441 709l-312 0 0-274 304 0 0-45-304 0 0-345 312 0 0-45-360 0 0 754 360 0M293 971l61-19-124-145-38 17z" horiz-adv-x="507" unicode="&#xc9;"/><glyph d="M441 709l-312 0 0-274 304 0 0-45-304 0 0-345 312 0 0-45-360 0 0 754 360 0M116 845l138 106 138-106-38-29-100 77-102-77z" horiz-adv-x="507" unicode="&#xca;"/><glyph d="M441 709l-312 0 0-274 304 0 0-45-304 0 0-345 312 0 0-45-360 0 0 754 360 0M132 920C140 927 149 931 160 931 171 931 180 927 188 920 196 912 200 902 200 891 200 880 196 870 188 863 180 855 171 851 160 851 149 851 140 855 132 863 124 870 120 880 120 891 120 902 124 912 132 920M319 920C326 927 336 931 347 931 358 931 368 927 376 920 383 912 387 902 387 891 387 880 383 870 376 863 368 855 358 851 347 851 336 851 326 855 319 863 311 870 307 880 307 891 307 902 311 912 319 920z" horiz-adv-x="507" unicode="&#xcb;"/><glyph d="M441 709l-312 0 0-274 304 0 0-45-304 0 0-345 312 0 0-45-360 0 0 754 360 0M172 952l61 19 101-147-38-17z" horiz-adv-x="507" unicode="&#xc8;"/><glyph d="M129 754l0-754-48 0 0 754M125 971l61-19-124-145-38 17z" horiz-adv-x="210" unicode="&#xcd;"/><glyph d="M129 754l0-754-48 0 0 754M-33 845l138 106 138-106-38-29-100 77-102-77z" horiz-adv-x="210" unicode="&#xce;"/><glyph d="M129 754l0-754-48 0 0 754M-16 920C-8 927 1 931 12 931 23 931 32 927 40 920 48 912 52 902 52 891 52 880 48 870 40 863 32 855 23 851 12 851 1 851-8 855-16 863-24 870-28 880-28 891-28 902-24 912-16 920M171 920C178 927 188 931 199 931 210 931 220 927 228 920 235 912 239 902 239 891 239 880 235 870 228 863 220 855 210 851 199 851 188 851 178 855 171 863 163 870 159 880 159 891 159 902 163 912 171 920z" horiz-adv-x="210" unicode="&#xcf;"/><glyph d="M129 754l0-754-48 0 0 754M24 952l61 19 101-147-38-17z" horiz-adv-x="210" unicode="&#xcc;"/><glyph d="M762 754l0-779-633 673 0-648-48 0 0 764 633-668 0 658M307 843l-30 22C284 883 295 898 309 911 322 923 338 929 355 929 371 929 394 923 425 910 459 897 480 890 488 890 511 890 527 904 536 931l29-22C560 891 550 876 535 863 520 850 503 844 484 844 473 844 451 851 419 864 388 877 366 884 351 884 331 884 316 870 307 843z" horiz-adv-x="843" unicode="&#xd1;"/><glyph d="M427 764C533 764 625 726 702 650 779 574 818 483 818 377 818 271 779 180 702 104 625 28 533-10 427-10 321-10 229 28 152 104 75 180 36 271 36 377 36 483 75 574 152 650 229 726 320 764 427 764M427 719C333 719 252 685 185 618 118 551 84 470 84 377 84 284 118 203 185 136 252 69 333 35 427 35 520 35 601 69 669 137 736 204 770 284 770 377 770 470 736 551 669 618 601 685 520 719 427 719M447 971l61-19-124-145-38 17z" horiz-adv-x="854" unicode="&#xd3;"/><glyph d="M427 764C533 764 625 726 702 650 779 574 818 483 818 377 818 271 779 180 702 104 625 28 533-10 427-10 321-10 229 28 152 104 75 180 36 271 36 377 36 483 75 574 152 650 229 726 320 764 427 764M427 719C333 719 252 685 185 618 118 551 84 470 84 377 84 284 118 203 185 136 252 69 333 35 427 35 520 35 601 69 669 137 736 204 770 284 770 377 770 470 736 551 669 618 601 685 520 719 427 719M289 845l138 106 138-106-38-29-100 77-102-77z" horiz-adv-x="854" unicode="&#xd4;"/><glyph d="M427 764C533 764 625 726 702 650 779 574 818 483 818 377 818 271 779 180 702 104 625 28 533-10 427-10 321-10 229 28 152 104 75 180 36 271 36 377 36 483 75 574 152 650 229 726 320 764 427 764M427 719C333 719 252 685 185 618 118 551 84 470 84 377 84 284 118 203 185 136 252 69 333 35 427 35 520 35 601 69 669 137 736 204 770 284 770 377 770 470 736 551 669 618 601 685 520 719 427 719M306 920C314 927 323 931 334 931 345 931 354 927 362 920 370 912 374 902 374 891 374 880 370 870 362 863 354 855 345 851 334 851 323 851 314 855 306 863 298 870 294 880 294 891 294 902 298 912 306 920M493 920C500 927 510 931 521 931 532 931 542 927 550 920 557 912 561 902 561 891 561 880 557 870 550 863 542 855 532 851 521 851 510 851 500 855 493 863 485 870 481 880 481 891 481 902 485 912 493 920z" horiz-adv-x="854" unicode="&#xd6;"/><glyph d="M427 764C533 764 625 726 702 650 779 574 818 483 818 377 818 271 779 180 702 104 625 28 533-10 427-10 321-10 229 28 152 104 75 180 36 271 36 377 36 483 75 574 152 650 229 726 320 764 427 764M427 719C333 719 252 685 185 618 118 551 84 470 84 377 84 284 118 203 185 136 252 69 333 35 427 35 520 35 601 69 669 137 736 204 770 284 770 377 770 470 736 551 669 618 601 685 520 719 427 719M346 952l61 19 101-147-38-17z" horiz-adv-x="854" unicode="&#xd2;"/><glyph d="M427 764C533 764 625 726 702 650 779 574 818 483 818 377 818 271 779 180 702 104 625 28 533-10 427-10 321-10 229 28 152 104 75 180 36 271 36 377 36 483 75 574 152 650 229 726 320 764 427 764M427 719C333 719 252 685 185 618 118 551 84 470 84 377 84 284 118 203 185 136 252 69 333 35 427 35 520 35 601 69 669 137 736 204 770 284 770 377 770 470 736 551 669 618 601 685 520 719 427 719M313 843l-30 22C290 883 301 898 315 911 328 923 344 929 361 929 377 929 400 923 431 910 465 897 486 890 494 890 517 890 533 904 542 931l29-22C566 891 556 876 541 863 526 850 509 844 490 844 479 844 457 851 425 864 394 877 372 884 357 884 337 884 322 870 313 843z" horiz-adv-x="854" unicode="&#xd5;"/><glyph d="M464 658l-34-28C393 689 342 719 277 719 237 719 203 705 176 677 149 649 135 615 135 575 135 556 139 540 146 525 153 510 165 497 182 485 199 472 212 463 222 458 232 453 248 445 271 434l144-75C472 323 501 273 501 209 501 148 477 96 430 54 383 11 328-10 265-10 214-10 168 5 129 34 90 63 61 103 43 152l42 19C121 80 182 35 267 35 317 35 361 52 398 87 435 122 453 164 453 213 453 228 450 243 444 257 437 270 431 281 424 290 417 298 405 307 389 318 373 329 362 336 355 340 348 343 334 350 315 359 308 362 304 365 301 366l-136 72C113 470 87 515 87 573 87 629 105 675 141 711 177 746 223 764 280 764 318 764 354 755 387 736 420 717 446 691 464 658M420 923l-138-107-138 107 38 28 100-76 102 76z" horiz-adv-x="544" unicode="&#x160;"/><glyph d="M538 298l0 456 48 0 0-470C586 251 586 225 585 208 584 191 579 170 571 145 563 120 551 98 535 78 510 49 480 28 444 13 407-2 369-10 330-10 291-10 253-2 217 13 180 28 150 49 125 78 109 98 97 120 89 145 81 170 77 191 76 208 75 225 74 251 74 284l0 470 48 0 0-456C122 267 123 244 124 227 125 210 128 190 134 167 140 143 149 123 161 108 178 85 203 68 235 55 267 42 299 35 330 35 361 35 393 42 425 55 457 68 482 85 499 108 511 123 520 143 526 167 532 190 536 210 537 227 538 244 538 267 538 298M365 971l61-19-124-145-38 17z" horiz-adv-x="660" unicode="&#xda;"/><glyph d="M538 298l0 456 48 0 0-470C586 251 586 225 585 208 584 191 579 170 571 145 563 120 551 98 535 78 510 49 480 28 444 13 407-2 369-10 330-10 291-10 253-2 217 13 180 28 150 49 125 78 109 98 97 120 89 145 81 170 77 191 76 208 75 225 74 251 74 284l0 470 48 0 0-456C122 267 123 244 124 227 125 210 128 190 134 167 140 143 149 123 161 108 178 85 203 68 235 55 267 42 299 35 330 35 361 35 393 42 425 55 457 68 482 85 499 108 511 123 520 143 526 167 532 190 536 210 537 227 538 244 538 267 538 298M192 845l138 106 138-106-38-29-100 77-102-77z" horiz-adv-x="660" unicode="&#xdb;"/><glyph d="M538 298l0 456 48 0 0-470C586 251 586 225 585 208 584 191 579 170 571 145 563 120 551 98 535 78 510 49 480 28 444 13 407-2 369-10 330-10 291-10 253-2 217 13 180 28 150 49 125 78 109 98 97 120 89 145 81 170 77 191 76 208 75 225 74 251 74 284l0 470 48 0 0-456C122 267 123 244 124 227 125 210 128 190 134 167 140 143 149 123 161 108 178 85 203 68 235 55 267 42 299 35 330 35 361 35 393 42 425 55 457 68 482 85 499 108 511 123 520 143 526 167 532 190 536 210 537 227 538 244 538 267 538 298M209 920C216 927 226 931 237 931 248 931 258 927 266 920 273 912 277 902 277 891 277 880 273 870 266 863 258 855 248 851 237 851 226 851 216 855 209 863 201 870 197 880 197 891 197 902 201 912 209 920M396 920C404 927 413 931 424 931 435 931 444 927 452 920 460 912 464 902 464 891 464 880 460 870 452 863 444 855 435 851 424 851 413 851 404 855 396 863 388 870 384 880 384 891 384 902 388 912 396 920z" horiz-adv-x="660" unicode="&#xdc;"/><glyph d="M538 298l0 456 48 0 0-470C586 251 586 225 585 208 584 191 579 170 571 145 563 120 551 98 535 78 510 49 480 28 444 13 407-2 369-10 330-10 291-10 253-2 217 13 180 28 150 49 125 78 109 98 97 120 89 145 81 170 77 191 76 208 75 225 74 251 74 284l0 470 48 0 0-456C122 267 123 244 124 227 125 210 128 190 134 167 140 143 149 123 161 108 178 85 203 68 235 55 267 42 299 35 330 35 361 35 393 42 425 55 457 68 482 85 499 108 511 123 520 143 526 167 532 190 536 210 537 227 538 244 538 267 538 298M234 952l61 19 101-147-38-17z" horiz-adv-x="660" unicode="&#xd9;"/><glyph d="M255 322l-251 432 53 0 222-382 222 382 53 0-251-432 0-322-48 0M329 971l61-19-124-145-38 17z" horiz-adv-x="559" unicode="&#xdd;"/><glyph d="M255 322l-251 432 53 0 222-382 222 382 53 0-251-432 0-322-48 0M170 920C178 927 187 931 198 931 209 931 218 927 226 920 234 912 238 902 238 891 238 880 234 870 226 863 218 855 209 851 198 851 187 851 178 855 170 863 162 870 158 880 158 891 158 902 162 912 170 920M357 920C364 927 374 931 385 931 396 931 406 927 414 920 421 912 425 902 425 891 425 880 421 870 414 863 406 855 396 851 385 851 374 851 364 855 357 863 349 870 345 880 345 891 345 902 349 912 357 920z" horiz-adv-x="559" unicode="&#x178;"/><glyph d="M96 45l447 0 0-45-531 0 460 709-416 0 0 45 500 0M434 923l-138-107-138 107 38 28 100-76 102 76z" horiz-adv-x="568" unicode="&#x17d;"/><glyph d="M256 430C205 430 162 410 128 371 94 332 77 286 77 234 77 179 94 131 128 92 161 52 205 32 259 32 316 32 360 52 393 92 425 131 441 180 441 239 441 294 424 339 390 376 356 412 311 430 256 430M483 462l0-462-45 0 0 83-2 0C419 54 395 32 362 15 329-2 295-10 260-10 191-10 136 13 95 60 53 107 32 165 32 234 32 303 53 360 94 405 135 450 190 472 258 472 294 472 328 464 360 449 391 433 417 411 436 382l2 0 0 80M315 714l61-19-124-145-38 17z" horiz-adv-x="560" unicode="&#xe1;"/><glyph d="M256 430C205 430 162 410 128 371 94 332 77 286 77 234 77 179 94 131 128 92 161 52 205 32 259 32 316 32 360 52 393 92 425 131 441 180 441 239 441 294 424 339 390 376 356 412 311 430 256 430M483 462l0-462-45 0 0 83-2 0C419 54 395 32 362 15 329-2 295-10 260-10 191-10 136 13 95 60 53 107 32 165 32 234 32 303 53 360 94 405 135 450 190 472 258 472 294 472 328 464 360 449 391 433 417 411 436 382l2 0 0 80M142 588l138 106 138-106-38-29-100 77-102-77z" horiz-adv-x="560" unicode="&#xe2;"/><glyph d="M256 430C205 430 162 410 128 371 94 332 77 286 77 234 77 179 94 131 128 92 161 52 205 32 259 32 316 32 360 52 393 92 425 131 441 180 441 239 441 294 424 339 390 376 356 412 311 430 256 430M483 462l0-462-45 0 0 83-2 0C419 54 395 32 362 15 329-2 295-10 260-10 191-10 136 13 95 60 53 107 32 165 32 234 32 303 53 360 94 405 135 450 190 472 258 472 294 472 328 464 360 449 391 433 417 411 436 382l2 0 0 80M159 662C166 670 176 674 187 674 198 674 208 670 216 662 223 654 227 645 227 634 227 623 223 614 216 606 208 598 198 594 187 594 176 594 166 598 159 606 151 614 147 623 147 634 147 645 151 654 159 662M346 662C354 670 363 674 374 674 385 674 394 670 402 662 410 654 414 645 414 634 414 623 410 614 402 606 394 598 385 594 374 594 363 594 354 598 346 606 338 614 334 623 334 634 334 645 338 654 346 662z" horiz-adv-x="560" unicode="&#xe4;"/><glyph d="M256 430C205 430 162 410 128 371 94 332 77 286 77 234 77 179 94 131 128 92 161 52 205 32 259 32 316 32 360 52 393 92 425 131 441 180 441 239 441 294 424 339 390 376 356 412 311 430 256 430M483 462l0-462-45 0 0 83-2 0C419 54 395 32 362 15 329-2 295-10 260-10 191-10 136 13 95 60 53 107 32 165 32 234 32 303 53 360 94 405 135 450 190 472 258 472 294 472 328 464 360 449 391 433 417 411 436 382l2 0 0 80M184 695l61 19 101-147-38-17z" horiz-adv-x="560" unicode="&#xe0;"/><glyph d="M256 430C205 430 162 410 128 371 94 332 77 286 77 234 77 179 94 131 128 92 161 52 205 32 259 32 316 32 360 52 393 92 425 131 441 180 441 239 441 294 424 339 390 376 356 412 311 430 256 430M483 462l0-462-45 0 0 83-2 0C419 54 395 32 362 15 329-2 295-10 260-10 191-10 136 13 95 60 53 107 32 165 32 234 32 303 53 360 94 405 135 450 190 472 258 472 294 472 328 464 360 449 391 433 417 411 436 382l2 0 0 80M219 689C236 706 256 714 280 714 304 714 325 706 342 689 359 672 367 651 367 627 367 603 359 583 342 566 325 549 304 540 280 540 256 540 236 549 219 566 202 583 193 603 193 627 193 651 202 672 219 689M314 660C305 669 293 674 280 674 267 674 256 669 247 660 238 651 233 640 233 627 233 614 238 603 247 594 256 585 267 580 280 580 293 580 305 585 314 594 323 603 327 614 327 627 327 640 323 651 314 660z" horiz-adv-x="560" unicode="&#xe5;"/><glyph d="M256 430C205 430 162 410 128 371 94 332 77 286 77 234 77 179 94 131 128 92 161 52 205 32 259 32 316 32 360 52 393 92 425 131 441 180 441 239 441 294 424 339 390 376 356 412 311 430 256 430M483 462l0-462-45 0 0 83-2 0C419 54 395 32 362 15 329-2 295-10 260-10 191-10 136 13 95 60 53 107 32 165 32 234 32 303 53 360 94 405 135 450 190 472 258 472 294 472 328 464 360 449 391 433 417 411 436 382l2 0 0 80M166 586l-30 22C143 626 154 641 168 654 181 666 197 672 214 672 230 672 253 666 284 653 318 640 339 633 347 633 370 633 386 647 395 674l29-22C419 634 409 619 394 606 379 593 362 587 343 587 332 587 310 594 278 607 247 620 225 627 210 627 190 627 175 613 166 586z" horiz-adv-x="560" unicode="&#xe3;"/><glyph d="M478 227l-401 0C76 169 93 122 128 86 163 50 207 32 262 32 297 32 328 42 357 61 385 80 408 105 425 137l38-22C419 32 350-10 256-10 189-10 135 14 94 61 53 108 32 165 32 232 32 299 53 355 95 402 136 449 190 472 256 472 324 472 378 448 419 401 459 354 479 296 478 227M77 269l356 0C427 313 408 351 375 383 342 414 303 430 257 430 210 430 170 414 135 383 100 351 81 313 77 269M290 714l61-19-124-145-38 17z" horiz-adv-x="510" unicode="&#xe9;"/><glyph d="M478 227l-401 0C76 169 93 122 128 86 163 50 207 32 262 32 297 32 328 42 357 61 385 80 408 105 425 137l38-22C419 32 350-10 256-10 189-10 135 14 94 61 53 108 32 165 32 232 32 299 53 355 95 402 136 449 190 472 256 472 324 472 378 448 419 401 459 354 479 296 478 227M77 269l356 0C427 313 408 351 375 383 342 414 303 430 257 430 210 430 170 414 135 383 100 351 81 313 77 269M117 588l138 106 138-106-38-29-100 77-102-77z" horiz-adv-x="510" unicode="&#xea;"/><glyph d="M478 227l-401 0C76 169 93 122 128 86 163 50 207 32 262 32 297 32 328 42 357 61 385 80 408 105 425 137l38-22C419 32 350-10 256-10 189-10 135 14 94 61 53 108 32 165 32 232 32 299 53 355 95 402 136 449 190 472 256 472 324 472 378 448 419 401 459 354 479 296 478 227M77 269l356 0C427 313 408 351 375 383 342 414 303 430 257 430 210 430 170 414 135 383 100 351 81 313 77 269M134 662C142 670 151 674 162 674 173 674 182 670 190 662 198 654 202 645 202 634 202 623 198 614 190 606 182 598 173 594 162 594 151 594 142 598 134 606 126 614 122 623 122 634 122 645 126 654 134 662M321 662C328 670 338 674 349 674 360 674 370 670 378 662 385 654 389 645 389 634 389 623 385 614 378 606 370 598 360 594 349 594 338 594 328 598 321 606 313 614 309 623 309 634 309 645 313 654 321 662z" horiz-adv-x="510" unicode="&#xeb;"/><glyph d="M478 227l-401 0C76 169 93 122 128 86 163 50 207 32 262 32 297 32 328 42 357 61 385 80 408 105 425 137l38-22C419 32 350-10 256-10 189-10 135 14 94 61 53 108 32 165 32 232 32 299 53 355 95 402 136 449 190 472 256 472 324 472 378 448 419 401 459 354 479 296 478 227M77 269l356 0C427 313 408 351 375 383 342 414 303 430 257 430 210 430 170 414 135 383 100 351 81 313 77 269M159 695l61 19 101-147-38-17z" horiz-adv-x="510" unicode="&#xe8;"/><glyph d="M139 462l0-462-45 0 0 462M152 714l61-19-124-145-38 17z" horiz-adv-x="234" unicode="&#xed;"/><glyph d="M139 462l0-462-45 0 0 462M-21 588l138 106 138-106-38-29-100 77-102-77z" horiz-adv-x="234" unicode="&#xee;"/><glyph d="M139 462l0-462-45 0 0 462M-4 662C4 670 13 674 24 674 35 674 44 670 52 662 60 654 64 645 64 634 64 623 60 614 52 606 44 598 35 594 24 594 13 594 4 598-4 606-12 614-16 623-16 634-16 645-12 654-4 662M183 662C190 670 200 674 211 674 222 674 232 670 240 662 247 654 251 645 251 634 251 623 247 614 240 606 232 598 222 594 211 594 200 594 190 598 183 606 175 614 171 623 171 634 171 645 175 654 183 662z" horiz-adv-x="234" unicode="&#xef;"/><glyph d="M139 462l0-462-45 0 0 462M21 695l61 19 101-147-38-17z" horiz-adv-x="234" unicode="&#xec;"/><glyph d="M122 462l0-72 2 0C137 416 156 436 180 451 204 465 231 472 261 472 318 472 357 456 380 424 402 391 413 343 413 279l0-279-45 0 0 279C368 303 367 323 365 339 362 354 358 370 351 385 344 400 332 412 317 419 301 426 281 430 257 430 167 430 122 363 122 228l0-228-45 0 0 462M131 586l-30 22C108 626 119 641 133 654 146 666 162 672 179 672 195 672 218 666 249 653 283 640 304 633 312 633 335 633 351 647 360 674l29-22C384 634 374 619 359 606 344 593 327 587 308 587 297 587 275 594 243 607 212 620 190 627 175 627 155 627 140 613 131 586z" horiz-adv-x="490" unicode="&#xf1;"/><glyph d="M272 472C340 472 398 449 445 403 492 356 515 299 515 231 515 163 492 106 445 60 398 13 340-10 272-10 206-10 150 14 103 61 56 108 32 164 32 230 32 297 55 354 102 401 149 448 205 472 272 472M269 430C215 430 170 410 133 371 96 332 77 285 77 230 77 177 96 130 133 91 170 52 215 32 269 32 326 32 373 51 412 89 451 127 470 174 470 230 470 287 451 334 413 373 374 411 326 430 269 430M308 714l61-19-124-145-38 17z" horiz-adv-x="547" unicode="&#xf3;"/><glyph d="M272 472C340 472 398 449 445 403 492 356 515 299 515 231 515 163 492 106 445 60 398 13 340-10 272-10 206-10 150 14 103 61 56 108 32 164 32 230 32 297 55 354 102 401 149 448 205 472 272 472M269 430C215 430 170 410 133 371 96 332 77 285 77 230 77 177 96 130 133 91 170 52 215 32 269 32 326 32 373 51 412 89 451 127 470 174 470 230 470 287 451 334 413 373 374 411 326 430 269 430M136 588l138 106 138-106-38-29-100 77-102-77z" horiz-adv-x="547" unicode="&#xf4;"/><glyph d="M272 472C340 472 398 449 445 403 492 356 515 299 515 231 515 163 492 106 445 60 398 13 340-10 272-10 206-10 150 14 103 61 56 108 32 164 32 230 32 297 55 354 102 401 149 448 205 472 272 472M269 430C215 430 170 410 133 371 96 332 77 285 77 230 77 177 96 130 133 91 170 52 215 32 269 32 326 32 373 51 412 89 451 127 470 174 470 230 470 287 451 334 413 373 374 411 326 430 269 430M152 662C160 670 169 674 180 674 191 674 200 670 208 662 216 654 220 645 220 634 220 623 216 614 208 606 200 598 191 594 180 594 169 594 160 598 152 606 144 614 140 623 140 634 140 645 144 654 152 662M339 662C346 670 356 674 367 674 378 674 388 670 396 662 403 654 407 645 407 634 407 623 403 614 396 606 388 598 378 594 367 594 356 594 346 598 339 606 331 614 327 623 327 634 327 645 331 654 339 662z" horiz-adv-x="547" unicode="&#xf6;"/><glyph d="M272 472C340 472 398 449 445 403 492 356 515 299 515 231 515 163 492 106 445 60 398 13 340-10 272-10 206-10 150 14 103 61 56 108 32 164 32 230 32 297 55 354 102 401 149 448 205 472 272 472M269 430C215 430 170 410 133 371 96 332 77 285 77 230 77 177 96 130 133 91 170 52 215 32 269 32 326 32 373 51 412 89 451 127 470 174 470 230 470 287 451 334 413 373 374 411 326 430 269 430M177 695l61 19 101-147-38-17z" horiz-adv-x="547" unicode="&#xf2;"/><glyph d="M272 472C340 472 398 449 445 403 492 356 515 299 515 231 515 163 492 106 445 60 398 13 340-10 272-10 206-10 150 14 103 61 56 108 32 164 32 230 32 297 55 354 102 401 149 448 205 472 272 472M269 430C215 430 170 410 133 371 96 332 77 285 77 230 77 177 96 130 133 91 170 52 215 32 269 32 326 32 373 51 412 89 451 127 470 174 470 230 470 287 451 334 413 373 374 411 326 430 269 430M159 586l-30 22C136 626 147 641 161 654 174 666 190 672 207 672 223 672 246 666 277 653 311 640 332 633 340 633 363 633 379 647 388 674l29-22C412 634 402 619 387 606 372 593 355 587 336 587 325 587 303 594 271 607 240 620 218 627 203 627 183 627 168 613 159 586z" horiz-adv-x="547" unicode="&#xf5;"/><glyph d="M310 398l-39-20C255 413 228 430 190 430 170 430 152 423 136 409 119 394 111 377 111 358 111 338 119 322 134 309 149 296 168 286 190 279 212 271 234 263 257 254 279 245 298 230 313 210 328 190 336 165 336 134 336 92 322 58 293 31 264 4 229-10 187-10 148-10 115 1 86 23 57 45 37 75 28 112l44 14C91 63 130 32 187 32 216 32 240 42 261 62 281 82 291 107 291 136 291 161 283 180 268 193 253 206 230 217 201 227 180 235 163 242 152 247 141 252 127 259 112 270 96 280 84 292 77 306 70 320 66 336 66 355 66 389 78 417 103 439 128 461 157 472 192 472 216 472 239 465 262 451 284 437 300 419 310 398M326 666l-138-107-138 107 38 28 100-76 102 76z" horiz-adv-x="375" unicode="&#x161;"/><glyph d="M357 462l45 0 0-277C402 163 402 147 402 137 401 126 399 113 394 96 389 79 383 64 374 52 343 11 297-10 236-10 175-10 129 11 98 52 89 64 83 79 78 96 73 113 71 126 71 137 70 147 70 163 70 185l0 277 45 0 0-261C115 175 116 153 119 136 121 119 126 101 134 84 141 67 154 54 171 45 188 36 209 32 236 32 263 32 285 36 302 45 319 54 331 67 339 84 346 101 351 119 354 136 356 153 357 175 357 201M281 714l61-19-124-145-38 17z" horiz-adv-x="472" unicode="&#xfa;"/><glyph d="M357 462l45 0 0-277C402 163 402 147 402 137 401 126 399 113 394 96 389 79 383 64 374 52 343 11 297-10 236-10 175-10 129 11 98 52 89 64 83 79 78 96 73 113 71 126 71 137 70 147 70 163 70 185l0 277 45 0 0-261C115 175 116 153 119 136 121 119 126 101 134 84 141 67 154 54 171 45 188 36 209 32 236 32 263 32 285 36 302 45 319 54 331 67 339 84 346 101 351 119 354 136 356 153 357 175 357 201M98 588l138 106 138-106-38-29-100 77-102-77z" horiz-adv-x="472" unicode="&#xfb;"/><glyph d="M357 462l45 0 0-277C402 163 402 147 402 137 401 126 399 113 394 96 389 79 383 64 374 52 343 11 297-10 236-10 175-10 129 11 98 52 89 64 83 79 78 96 73 113 71 126 71 137 70 147 70 163 70 185l0 277 45 0 0-261C115 175 116 153 119 136 121 119 126 101 134 84 141 67 154 54 171 45 188 36 209 32 236 32 263 32 285 36 302 45 319 54 331 67 339 84 346 101 351 119 354 136 356 153 357 175 357 201M115 662C122 670 132 674 143 674 154 674 164 670 172 662 179 654 183 645 183 634 183 623 179 614 172 606 164 598 154 594 143 594 132 594 122 598 115 606 107 614 103 623 103 634 103 645 107 654 115 662M302 662C310 670 319 674 330 674 341 674 350 670 358 662 366 654 370 645 370 634 370 623 366 614 358 606 350 598 341 594 330 594 319 594 310 598 302 606 294 614 290 623 290 634 290 645 294 654 302 662z" horiz-adv-x="472" unicode="&#xfc;"/><glyph d="M357 462l45 0 0-277C402 163 402 147 402 137 401 126 399 113 394 96 389 79 383 64 374 52 343 11 297-10 236-10 175-10 129 11 98 52 89 64 83 79 78 96 73 113 71 126 71 137 70 147 70 163 70 185l0 277 45 0 0-261C115 175 116 153 119 136 121 119 126 101 134 84 141 67 154 54 171 45 188 36 209 32 236 32 263 32 285 36 302 45 319 54 331 67 339 84 346 101 351 119 354 136 356 153 357 175 357 201M130 695l61 19 101-147-38-17z" horiz-adv-x="472" unicode="&#xf9;"/><glyph d="M215-8l-222 470 47 0 197-418 177 418 46 0-310-732-46 0M280 714l61-19-124-145-38 17z" horiz-adv-x="460" unicode="&#xfd;"/><glyph d="M215-8l-222 470 47 0 197-418 177 418 46 0-310-732-46 0M114 662C122 670 131 674 142 674 153 674 162 670 170 662 178 654 182 645 182 634 182 623 178 614 170 606 162 598 153 594 142 594 131 594 122 598 114 606 106 614 102 623 102 634 102 645 106 654 114 662M301 662C308 670 318 674 329 674 340 674 350 670 358 662 365 654 369 645 369 634 369 623 365 614 358 606 350 598 340 594 329 594 318 594 308 598 301 606 293 614 289 623 289 634 289 645 293 654 301 662z" horiz-adv-x="460" unicode="&#xff;"/><glyph d="M98 42l375 0 0-42-470 0 378 420-317 0 0 42 411 0M403 666l-138-107-138 107 38 28 100-76 102 76z" horiz-adv-x="480" unicode="&#x17e;"/><glyph d="M611 685C556 738 487 764 404 764 317 764 244 732 187 669 134 610 103 535 92 442l-70 0-14-45 80 0 0-21C88 364 89 346 90 322l-68 0-14-45 88 0C111 192 144 124 196 72 251 17 321-10 406-10 451-10 487-6 513 1 539 10 567 25 596 47l0 58C569 80 544 63 523 54 494 41 454 35 404 35 334 35 276 58 229 105 187 148 159 206 145 277l343 0 14 45-364 0C137 345 136 361 136 372l0 25 389 0 14 45-399 0C150 531 179 600 227 649 273 696 330 719 399 719 444 719 482 713 511 700 540 687 569 664 596 633z" horiz-adv-x="620" unicode="&#x20ac;"/><glyph horiz-adv-x="310" unicode="&#xa0;"/><glyph d="M0 342l190 0 0-45-190 0z" horiz-adv-x="190" unicode="&#x2d;"/></font><font horiz-adv-x="1000" horiz-origin-x="0" horiz-origin-y="0" vert-adv-y="1024" vert-origin-x="512" vert-origin-y="768"><font-face underline-position="-125" underline-thickness="50"/><missing-glyph horiz-adv-x="308"/><glyph horiz-adv-x="308" unicode="&#x20;"/><glyph d="M130 83C141 94 154 99 169 99 184 99 198 94 209 83 220 72 225 59 225 44 225 29 220 15 209 4 198-7 184-13 169-13 154-13 141-7 130 4 119 15 113 29 113 44 113 59 119 72 130 83M128 153l0 601 82 0 0-601z" horiz-adv-x="338" unicode="&#x21;"/><glyph d="M102 754l94 0-18-328-58 0M261 754l94 0-18-328-58 0z" horiz-adv-x="457" unicode="&#x26;&#x61;&#x6d;&#x70;&#x3b;&#x71;&#x75;&#x6f;&#x74;&#x3b;"/><glyph d="M236 754l77 0-36-204 124 0 35 204 79 0-35-204 92 0 0-78-105 0-29-171 101 0 0-78-115 0-40-223-76 0 39 223-123 0-42-223-75 0 39 223-102 0 0 78 115 0 29 171-107 0 0 78 119 0M266 472l-29-171 123 0 29 171z" horiz-adv-x="616" unicode="&#x23;"/><glyph d="M356 344l0-268C387 87 412 105 431 131 449 156 458 186 458 219 458 270 424 311 356 344M290 463l0 219C263 677 241 663 224 642 206 621 197 596 197 569 197 526 228 491 290 463M290 69l0 305C264 385 242 395 224 406 205 417 187 430 169 445 150 460 136 479 127 500 118 521 113 545 113 572 113 623 130 665 163 699 196 733 239 754 290 761l0 103 66 0 0-103C389 756 420 744 449 723 477 702 499 677 514 647l-66-43C423 649 392 674 356 681l0-247C385 422 409 410 428 399 447 388 467 374 486 357 505 340 519 321 528 298 537 275 542 250 542 221 542 166 525 117 490 75 455 33 410 6 356-5l0-110-66 0 0 104C237-8 190 11 149 48 108 85 83 130 74 183l81 23C160 171 175 140 200 113 225 86 255 72 290 69z" horiz-adv-x="616" unicode="&#x24;"/><glyph d="M368 602C368 557 352 518 319 486 286 454 246 438 200 438 154 438 115 454 82 486 49 517 32 556 32 602 32 648 49 687 82 719 115 751 154 767 200 767 246 767 286 751 319 719 352 687 368 648 368 602M96 602C96 575 106 551 127 532 148 512 172 502 200 502 228 502 252 512 273 532 294 551 304 575 304 602 304 630 294 654 273 674 252 693 228 703 200 703 172 703 148 693 127 674 106 654 96 630 96 602M597 767l40-24-436-756-43 26M766 151C766 106 750 67 717 35 684 3 644-13 598-13 552-13 513 3 480 35 447 66 430 105 430 151 430 197 447 236 480 268 513 300 552 316 598 316 644 316 684 300 717 268 750 236 766 197 766 151M494 151C494 124 504 100 525 81 546 61 570 51 598 51 626 51 650 61 671 81 692 100 702 124 702 151 702 179 692 203 671 223 650 242 626 252 598 252 570 252 546 242 525 223 504 203 494 179 494 151z" horiz-adv-x="797" unicode="&#x25;"/><glyph d="M302 492l7 5C312 499 319 504 331 513 342 522 350 528 354 531 357 534 363 539 372 548 380 556 386 563 389 569 392 574 396 582 399 591 402 600 403 610 403 619 403 642 395 660 379 675 363 689 344 696 321 696 298 696 278 688 262 672 246 656 238 636 238 613 238 606 239 599 240 592 241 585 244 578 249 571 253 563 256 557 258 554 260 551 265 544 272 534 279 524 283 518 284 517M581 0l-81 106C411 27 331-13 259-13 200-13 148 7 105 46 61 85 39 134 39 193 39 217 43 240 51 262 58 283 67 301 76 316 85 331 100 347 120 364 139 381 155 394 168 403 181 412 199 424 224 441l9 6C232 449 228 454 223 461 218 468 214 473 212 476 210 479 207 484 202 491 197 498 194 503 192 506 190 509 187 514 183 521 179 528 176 533 175 538 173 542 171 547 168 554 165 561 164 567 163 572 162 577 161 582 160 589 159 595 158 601 158 607 158 654 174 693 205 723 236 752 276 767 323 767 367 767 405 753 436 725 467 697 483 662 483 619 483 598 480 578 473 560 466 542 455 525 439 508 423 491 410 479 400 470 390 461 373 448 350 431l159-203 85 99 61-50-96-112 128-165M282 385l-36-24C219 343 199 329 186 318 172 307 158 290 143 268 128 246 121 223 121 199 121 163 134 131 161 104 188 77 219 63 254 63 277 63 302 70 329 83 356 96 376 108 390 119 404 130 424 146 450 169z" horiz-adv-x="695" unicode="&#x26;&#x61;&#x6d;&#x70;&#x3b;&#x61;&#x6d;&#x70;&#x3b;"/><glyph d="M154 767l74-27-114-255-54 21z" horiz-adv-x="289" unicode="&#x2019;"/><glyph d="M184 788l71-34C202 613 175 453 175 274 175 95 202-65 255-206l-71-34C123-111 93 61 93 274 93 487 123 659 184 788z" horiz-adv-x="287" unicode="&#x28;"/><glyph d="M32 754l71 34C164 659 194 487 194 274 194 61 164-111 103-240l-71 34C85-65 112 95 112 274 112 453 85 613 32 754z" horiz-adv-x="287" unicode="&#x29;"/><glyph d="M265 614l-6 140 75 0-6-140 132 49 24-72-136-38 87-110-61-45-78 118-78-118-61 45 88 110-136 38 24 72z" horiz-adv-x="592" unicode="&#x2a;"/><glyph d="M269 498l78 0 0-203 203 0 0-78-203 0 0-203-78 0 0 203-203 0 0 78 203 0z" horiz-adv-x="616" unicode="&#x2b;"/><glyph d="M151 110l74-26-113-256-54 22z" horiz-adv-x="308" unicode="&#x2c;"/><glyph d="M115 83C126 94 139 99 154 99 169 99 183 94 194 83 205 72 210 59 210 44 210 29 205 15 194 4 183-7 169-13 154-13 139-13 126-7 115 4 104 15 98 29 98 44 98 59 104 72 115 83z" horiz-adv-x="308" unicode="&#x2e;"/><glyph d="M486 825l66-30-469-952-65 30z" horiz-adv-x="570" unicode="&#x2f;"/><glyph d="M578 376C578 329 572 282 560 237 547 191 530 149 508 112 486 75 458 45 423 22 388-1 349-13 308-13 267-13 229-1 194 22 159 45 130 75 108 112 86 149 69 191 57 237 44 282 38 329 38 376 38 417 43 460 54 503 65 546 80 588 101 629 122 670 150 703 186 729 222 754 263 767 308 767 353 767 394 754 430 729 466 703 494 670 515 629 536 588 551 546 562 503 573 460 578 417 578 376M122 372C123 342 126 311 133 279 140 246 150 213 163 180 176 147 196 119 221 98 246 76 275 65 308 65 341 65 370 76 395 98 420 119 440 147 453 180 466 213 476 246 483 279 490 311 493 342 494 372 495 401 492 433 486 467 479 501 469 535 456 570 442 604 422 632 397 655 371 678 341 689 308 689 275 689 245 678 220 655 194 632 174 604 161 570 147 535 137 501 131 467 124 433 121 401 122 372z" horiz-adv-x="616" unicode="&#x30;"/><glyph d="M283 676l-125 0 44 78 165 0 0-754-84 0z" horiz-adv-x="616" unicode="&#x31;"/><glyph d="M211 78l318 0 0-78-488 0 353 417C428 458 445 500 445 543 445 584 430 619 401 647 372 675 336 689 295 689 250 689 214 674 187 645 159 616 144 579 143 534l-84 0C60 601 83 656 127 701 171 745 226 767 292 767 357 767 412 746 459 704 506 661 529 608 529 544 529 482 510 429 472 385z" horiz-adv-x="616" unicode="&#x32;"/><glyph d="M271 357l0 78C317 437 353 447 380 465 407 482 420 513 420 557 420 597 408 629 384 653 359 677 327 689 288 689 251 689 222 678 201 656 180 634 167 605 164 568l-83 0C87 629 108 678 145 714 181 749 229 767 290 767 351 767 402 748 443 710 484 672 504 622 504 561 504 527 495 495 478 465 461 434 437 411 407 396 442 380 469 355 488 322 506 289 515 252 515 211 515 146 492 92 447 50 402 8 346-13 281-13 219-13 166 6 123 45 80 84 58 134 57 196l82 0C141 158 156 127 184 102 212 77 245 65 284 65 325 65 360 80 389 109 417 138 431 174 431 216 431 263 416 298 387 323 357 347 318 358 271 357z" horiz-adv-x="616" unicode="&#x33;"/><glyph d="M476 200l93 0 0-78-93 0 0-122-84 0 0 122-386 0 468 674 2 0M392 200l0 341-2 0-237-341z" horiz-adv-x="616" unicode="&#x34;"/><glyph d="M523 676l-241 0-49-161 45 4C351 519 412 494 459 443 506 392 529 330 529 256 529 179 502 115 449 64 396 13 330-13 252-13 203-13 158-1 119 23 79 46 46 79 21 122l67 48C105 139 129 113 159 94 188 75 220 65 255 65 310 65 356 83 392 120 427 157 445 203 445 258 445 311 427 354 391 389 355 424 310 441 257 441 211 441 163 425 114 393l109 361 300 0z" horiz-adv-x="616" unicode="&#x35;"/><glyph d="M363 767l63-47-174-234 2-2C275 491 297 495 320 495 388 495 446 471 493 422 540 373 564 315 564 246 564 174 539 113 488 63 437 12 375-13 304-13 233-13 172 12 121 63 70 114 44 174 44 245 44 302 67 362 113 426M480 243C480 292 463 333 429 367 394 400 353 417 304 417 255 417 213 400 179 367 145 333 128 292 128 243 128 194 145 152 180 117 214 82 255 65 304 65 353 65 394 82 429 117 463 152 480 194 480 243z" horiz-adv-x="616" unicode="&#x36;"/><glyph d="M463 676l-412 0 0 78 556 0-506-767-66 39z" horiz-adv-x="616" unicode="&#x37;"/><glyph d="M412 313C383 341 349 355 308 355 267 355 233 341 205 313 176 284 162 250 162 210 162 170 176 136 205 108 233 79 267 65 308 65 349 65 383 79 412 108 440 136 454 170 454 210 454 250 440 284 412 313M519 557C519 524 511 492 495 462 478 431 456 408 427 392 462 376 489 352 509 319 528 286 538 250 538 211 538 146 516 93 472 51 428 8 373-13 308-13 243-13 188 8 144 51 100 93 78 146 78 211 78 250 88 286 108 319 127 352 154 376 189 392 160 408 138 431 122 462 105 492 97 524 97 557 97 617 117 667 158 707 199 747 249 767 308 767 367 767 417 747 458 707 499 667 519 617 519 557M177 559C177 522 190 491 216 466 241 440 272 427 308 427 344 427 375 440 401 466 426 491 439 522 439 559 439 595 426 626 401 651 375 676 344 689 308 689 272 689 241 676 216 651 190 626 177 595 177 559z" horiz-adv-x="616" unicode="&#x38;"/><glyph d="M245-13l-63 43 174 239-2 2C332 264 310 261 289 261 220 261 163 285 116 334 69 383 45 441 45 510 45 581 71 642 122 692 173 742 234 767 305 767 376 767 438 742 489 692 540 642 565 581 565 510 565 454 542 394 495 329M305 339C354 339 395 356 430 390 464 423 481 464 481 513 481 562 464 603 430 638 395 672 354 689 305 689 256 689 215 672 181 638 146 603 129 562 129 513 129 464 146 423 180 390 214 356 256 339 305 339z" horiz-adv-x="616" unicode="&#x39;"/><glyph d="M115 83C126 94 139 99 154 99 169 99 183 94 194 83 205 72 210 59 210 44 210 29 205 15 194 4 183-7 169-13 154-13 139-13 126-7 115 4 104 15 98 29 98 44 98 59 104 72 115 83M115 467C126 478 139 483 154 483 169 483 183 478 194 467 205 456 210 443 210 428 210 413 205 399 194 388 183 377 169 371 154 371 139 371 126 377 115 388 104 399 98 413 98 428 98 443 104 456 115 467z" horiz-adv-x="308" unicode="&#x3a;"/><glyph d="M153 110l74-26-113-256-54 22M140 467C151 478 164 483 179 483 194 483 208 478 219 467 230 456 235 443 235 428 235 413 230 399 219 388 208 377 194 371 179 371 164 371 151 377 140 388 129 399 123 413 123 428 123 443 129 456 140 467z" horiz-adv-x="308" unicode="&#x3b;"/><glyph d="M550 498l0-85-368-157 368-157 0-85-484 207 0 70z" horiz-adv-x="616" unicode="&#x26;&#x61;&#x6d;&#x70;&#x3b;&#x6c;&#x74;&#x3b;"/><glyph d="M66 373l484 0 0-78-484 0M66 217l484 0 0-78-484 0z" horiz-adv-x="616" unicode="&#x3d;"/><glyph d="M66 413l0 85 484-207 0-70-484-207 0 85 368 157z" horiz-adv-x="616" unicode="&#x26;&#x61;&#x6d;&#x70;&#x3b;&#x67;&#x74;&#x3b;"/><glyph d="M325 328l81 0C407 279 393 238 362 205 331 172 291 155 243 155 196 155 158 171 127 202 96 233 80 272 80 318 80 359 92 392 116 415 140 438 174 457 217 471 264 486 293 497 306 506 331 524 344 551 344 586 344 617 334 642 315 661 296 680 271 690 241 690 213 690 190 681 171 662 152 643 143 619 143 591 143 575 145 559 149 543l-83 0-4 53C62 647 80 688 116 720 151 751 195 767 246 767 297 767 339 750 374 716 409 681 426 638 426 587 426 530 408 486 372 453 368 450 364 447 360 444 356 441 351 438 346 435 341 432 336 429 332 427 328 425 323 423 316 420 309 417 305 416 302 415 299 414 293 412 285 409 277 406 272 405 270 404 268 403 263 402 254 399 245 396 240 395 239 395 188 381 162 353 162 312 162 289 170 270 186 255 202 240 221 232 244 232 271 232 291 241 305 260 318 278 325 301 325 328M203 83C214 94 227 99 242 99 257 99 271 94 282 83 293 72 298 59 298 44 298 29 293 15 282 4 271-7 257-13 242-13 227-13 214-7 203 4 192 15 186 29 186 44 186 59 192 72 203 83z" horiz-adv-x="488" unicode="&#x3f;"/><glyph d="M261 346C261 311 271 282 290 260 309 237 335 226 369 226 410 226 441 240 463 268 484 296 498 331 503 372 508 412 501 445 482 470 463 495 436 507 401 507 362 507 329 490 302 457 275 424 261 387 261 346M528 505l14 61 71 0-50-255C557 294 554 276 555 256 555 236 562 226 577 226 601 226 626 246 651 287 676 328 690 371 693 417 698 502 674 570 621 620 568 670 499 695 415 695 326 695 253 665 195 605 137 544 108 468 108 377 108 282 139 206 201 147 263 88 340 59 432 59 517 59 580 74 623 105l70-51C606 9 517-13 424-13 315-13 224 24 149 99 74 173 36 266 36 377 36 488 73 580 147 655 220 730 311 767 418 767 511 767 589 738 653 681 728 616 765 540 765 452 765 366 744 296 703 242 680 212 655 190 628 176 601 161 574 155 549 156 519 157 501 178 495 217 454 176 409 156 359 156 314 156 275 174 242 210 208 246 191 289 191 339 191 402 210 457 248 504 286 551 335 575 395 575 448 575 492 552 528 505z" horiz-adv-x="800" unicode="&#x40;"/><glyph d="M511 214l-322 0-91-214-92 0 348 790 339-790-93 0M478 292l-126 302-129-302z" horiz-adv-x="699" unicode="&#x41;"/><glyph d="M160 350l0-272 84 0C373 78 437 124 437 216 437 305 369 350 233 350M76 0l0 754 124 0C275 754 336 738 383 706 429 674 452 622 452 550 452 485 427 436 378 403 422 392 457 369 483 333 508 297 521 256 521 210 521 139 496 86 446 52 396 17 331 0 251 0M160 676l0-254 32 0C220 422 243 423 261 426 279 429 297 434 315 442 333 450 346 463 355 481 364 499 368 522 368 550 368 602 354 636 326 652 297 668 253 676 193 676z" horiz-adv-x="568" unicode="&#x42;"/><glyph d="M651 693l0-104C586 656 510 689 421 689 338 689 266 658 207 596 147 534 117 461 117 377 117 293 147 220 207 158 267 96 339 65 423 65 508 65 584 98 651 165l0-104C583 12 508-13 426-13 319-13 227 25 150 101 72 176 33 267 33 374 33 482 72 575 149 652 226 729 318 767 426 767 510 767 585 742 651 693z" horiz-adv-x="717" unicode="&#x43;"/><glyph d="M76 0l0 754 142 0C281 754 335 748 381 735 427 722 471 698 512 663 595 591 637 495 637 376 637 262 596 168 514 95 472 58 428 33 383 20 337 7 281 0 216 0M160 78l61 0C272 78 317 84 355 95 392 106 427 126 459 156 522 215 553 288 553 377 553 470 520 546 455 603 423 632 389 651 352 661 315 671 271 676 221 676l-61 0z" horiz-adv-x="678" unicode="&#x44;"/><glyph d="M76 0l0 754 391 0 0-78-307 0 0-224 298 0 0-78-298 0 0-296 307 0 0-78z" horiz-adv-x="534" unicode="&#x45;"/><glyph d="M419 676l-259 0 0-224 251 0 0-78-251 0 0-374-84 0 0 754 343 0z" horiz-adv-x="478" unicode="&#x46;"/><glyph d="M463 379l314 0C778 322 774 272 763 231 752 190 731 150 699 113 665 73 623 42 574 20 524-2 473-13 420-13 314-13 223 25 147 102 70 178 32 269 32 375 32 483 70 575 147 652 224 729 316 767 425 767 554 767 661 713 744 604l-61-57C616 642 529 689 424 689 339 689 266 658 206 596 146 534 116 460 116 374 116 292 145 221 204 161 233 132 266 109 304 92 342 74 380 65 418 65 487 65 549 88 604 133 659 178 687 234 687 301l-224 0z" horiz-adv-x="820" unicode="&#x47;"/><glyph d="M164 448l386 0 0 306 84 0 0-754-84 0 0 370-386 0 0-370-84 0 0 754 84 0z" horiz-adv-x="714" unicode="&#x48;"/><glyph d="M162 754l0-754-84 0 0 754z" horiz-adv-x="239" unicode="&#x49;"/><glyph d="M236 754l0-597C236 130 236 110 235 95 234 80 230 61 225 40 219 18 210-1 198-16 167-57 123-78 68-78 23-78-22-59-66-22l47 65C12 14 41 0 70 0 83 0 95 2 105 7 114 12 122 19 128 29 133 38 138 47 142 56 145 65 148 76 149 91 150 105 151 116 152 124 152 132 152 143 152 157l0 597z" horiz-adv-x="314" unicode="&#x4a;"/><glyph d="M160 431l321 323 113 0-354-351 366-403-116 0-309 346-21-21 0-325-84 0 0 754 84 0z" horiz-adv-x="611" unicode="&#x4b;"/><glyph d="M160 754l0-676 208 0 0-78-292 0 0 754z" horiz-adv-x="375" unicode="&#x4c;"/><glyph d="M21 0l153 797 274-633 275 633 153-797-86 0-97 510-2 0-243-541-242 541-2 0-97-510z" horiz-adv-x="896" unicode="&#x4d;"/><glyph d="M81 0l0 786 588-616 0 584 84 0 0-788-588 615 0-581z" horiz-adv-x="834" unicode="&#x4e;"/><glyph d="M154 653C231 729 323 767 431 767 539 767 632 729 709 653 786 576 824 484 824 376 824 268 786 176 709 101 632 25 539-13 431-13 323-13 231 25 154 101 77 176 38 268 38 376 38 484 77 576 154 653M122 377C122 292 152 218 213 157 273 96 346 65 431 65 516 65 589 96 650 157 710 218 740 292 740 377 740 463 710 537 650 598 590 659 517 689 431 689 345 689 272 659 212 598 152 537 122 463 122 377z" horiz-adv-x="862" unicode="&#x4f;"/><glyph d="M160 330l0-330-84 0 0 754 124 0C241 754 277 752 306 747 335 742 362 731 387 714 414 695 435 670 450 640 465 609 472 577 472 542 472 474 448 420 400 380 359 347 300 330 221 330M160 676l0-268 56 0C331 408 388 453 388 544 388 568 384 588 377 605 369 622 359 635 348 644 336 653 321 660 302 665 283 670 266 673 250 674 234 675 214 676 191 676z" horiz-adv-x="503" unicode="&#x50;"/><glyph d="M527 304l130-136C712 226 740 296 740 377 740 463 710 537 650 598 590 659 517 689 431 689 345 689 272 659 212 598 152 537 122 463 122 377 122 292 152 218 213 157 273 96 346 65 431 65 494 65 550 84 599 121l-182 183M721-7l-63 68C627 38 592 20 551 7 510-6 470-13 431-13 323-13 231 25 154 101 77 176 38 268 38 376 38 484 77 576 154 653 231 729 323 767 431 767 540 767 632 729 709 652 786 575 824 482 824 374 824 275 788 186 715 108l113-115z" horiz-adv-x="862" unicode="&#x51;"/><glyph d="M160 676l0-271 26 0C213 405 236 407 257 410 277 413 297 420 317 429 336 438 351 451 362 470 372 489 377 512 377 540 377 564 373 585 366 602 359 619 350 632 339 642 328 651 314 659 296 664 278 669 261 673 245 674 228 675 208 676 185 676M160 331l0-331-84 0 0 754 109 0C224 754 258 751 289 745 320 739 349 729 376 714 403 699 424 678 439 650 454 621 461 587 461 546 461 488 444 440 410 402 376 364 330 343 272 338l240-338-103 0-228 331z" horiz-adv-x="542" unicode="&#x52;"/><glyph d="M485 650l-67-43C387 662 343 689 288 689 254 689 225 678 200 656 175 634 163 606 163 572 163 557 166 543 173 530 180 517 190 506 204 497 218 487 230 479 240 474 249 469 263 462 281 454l50-22C360 419 383 408 402 397 421 386 439 372 458 356 476 339 490 320 499 297 508 274 512 249 512 220 512 155 489 100 443 55 397 10 341-13 275-13 215-13 164 5 122 41 79 76 52 123 40 182l82 23C127 166 144 133 172 106 200 79 234 65 273 65 314 65 351 79 382 108 413 136 428 171 428 212 428 229 425 244 420 259 414 273 408 284 401 293 394 302 382 311 367 321 352 331 340 338 331 343 322 347 308 353 289 362l-46 20C190 406 149 432 121 460 93 488 79 526 79 575 79 632 100 678 141 714 182 749 232 767 290 767 332 767 370 757 404 737 438 716 465 687 485 650z" horiz-adv-x="559" unicode="&#x53;"/><glyph d="M276 676l0-676-84 0 0 676-182 0 0 78 450 0 0-78z" horiz-adv-x="470" unicode="&#x54;"/><glyph d="M158 754l0-449C158 276 158 256 159 244 159 232 162 215 167 193 172 170 180 152 191 137 207 115 229 98 258 85 286 72 314 65 343 65 370 65 398 71 425 83 452 95 474 111 491 132 502 146 511 163 517 184 523 204 526 221 527 235 528 248 528 268 528 293 528 298 528 302 528 305l0 449 84 0 0-472C612 234 608 194 600 163 591 132 573 102 546 73 493 16 425-13 343-13 266-13 201 13 148 64 118 93 98 124 89 157 79 190 74 232 74 282l0 472z" horiz-adv-x="685" unicode="&#x55;"/><glyph d="M97 754l215-575 215 575 91 0-306-799-306 799z" horiz-adv-x="624" unicode="&#x56;"/><glyph d="M104 754l198-565 244 604 244-604 198 565 91 0-289-793-244 607-244-607-289 793z" horiz-adv-x="1091" unicode="&#x57;"/></font>
</svg>
